<?xml version="1.0" standalone="no"?>
<!DOCTYPE svg PUBLIC "-//W3C//DTD SVG 1.1//EN" "http://www.w3.org/Graphics/SVG/1.1/DTD/svg11.dtd" >
<svg>
<metadata>
Created by FontForge 20090914 at Wed Nov  7 16:07:30 2012
 By www-data
Converted by Andrey V. Panov from TeX fonts
</metadata>
<defs>
<font id="CMUSansSerif-Oblique" horiz-adv-x="500" >
  <font-face 
    font-family="CMU Sans Serif"
    font-weight="500"
    font-style="oblique"
    font-stretch="normal"
    units-per-em="1000"
    panose-1="2 0 6 3 0 0 0 0 0 0"
    ascent="800"
    descent="-200"
    x-height="445"
    cap-height="694"
    bbox="-1075 -354.003 1522.99 1191"
    underline-thickness="50"
    underline-position="-100"
    slope="-12"
    unicode-range="U+0020-U+10147"
  />
<missing-glyph horiz-adv-x="760" 
d="M10 10v755h740v-755h-740zM70 112l276 276l-276 275v-551zM105 70h550l-275 276zM105 705l275 -276l275 276h-550zM414 388l276 -276v551z" />
    <glyph glyph-name="igrave" unicode="i&#x300;" horiz-adv-x="239" 
d="M102 640h78l106 -130h-62zM81 0l95 445h75l-95 -445h-75z" />
    <glyph glyph-name="iacute" unicode="i&#x301;" horiz-adv-x="239" 
d="M141 510l160 130h46l33 -1l-177 -129h-62zM81 0l95 445h75l-95 -445h-75z" />
    <glyph glyph-name="icircumflex" unicode="i&#x302;" horiz-adv-x="239" 
d="M72 509l86 79c33.333 31.333 53.333 49.5 60 54.5s13.667 7.5 21 7.5h49l95 -141h-61l-74 99l-115 -99h-61zM81 0l95 445h75l-95 -445h-75z" />
    <glyph glyph-name="idieresis" unicode="i&#x308;" horiz-adv-x="294" 
d="M126 570l19 89h89l-18 -89h-90zM320 570l19 89h89l-18 -89h-90zM109 0l95 445h75l-95 -445h-75z" />
    <glyph glyph-name="Aogonek" unicode="A&#x328;" horiz-adv-x="667" 
d="M27 0l408.001 694h89l113 -694h-14c-20.667 -0 -47.167 -13.667 -79.5 -41s-48.5 -52 -48.5 -74c0 -4 0.833008 -8.16699 2.5 -12.5s6 -8.66602 13 -12.999s16.167 -6.5 27.5 -6.5c10 0 33.667 4.66699 71 14l3 -59c-39.333 -16.667 -73.333 -25 -102 -25
s-49.334 7.16699 -62.001 21.5s-19 30.166 -19 47.499c0 20.667 8.66699 44.5 26 71.5s47.333 52.5 90 76.5l-33 204h-290l-120 -204h-75zM254.001 260l249 -0.000976562c-31.333 200.667 -47 318.334 -47 353.001v11c-10 -22.667 -25.5 -53.167 -46.5 -91.5l-90 -158.5
c-39 -67.333 -60.833 -105.333 -65.5 -114z" />
    <glyph glyph-name="imacron" unicode="i&#x304;" horiz-adv-x="239" 
d="M55 552l14 64h360l-14 -64h-360zM81 0l95 445h75l-95 -445h-75z" />
    <glyph glyph-name="ibreve" unicode="i&#x306;" horiz-adv-x="239" 
d="M82 612c0 16.667 0.666016 25.6689 1.99902 27.002h62c-0.666992 -2.66699 -1 -6.33398 -1 -11.001c0 -22 9.5 -38 28.5 -48s40.833 -15 65.5 -15c24 0 48.333 5.5 73 16.5s41 29.833 49 56.5v1h62c-12 -43.333 -37.167 -77.5 -75.5 -102.5
s-79.166 -37.833 -122.499 -38.5h-1c-40.667 0 -74.5 10.667 -101.5 32s-40.5 48.666 -40.5 81.999zM80.999 0.00195312l95 445h75l-95 -445h-75z" />
    <glyph glyph-name="IJ" unicode="IJ" horiz-adv-x="722" 
d="M66 0l147 694h90l-147 -694h-90zM296 20l29.002 75c30.667 -36.667 69.667 -55 117 -55c18.667 0 35.667 2.16699 51 6.5s28 10.833 38 19.5s18.5 17 25.5 25s12.667 18 17 30s7.5 21.333 9.5 28s3.66699 15 5 25l3 14l108 506h87l-109 -514
c-4.66699 -22 -8.5 -38.833 -11.5 -50.5s-9.33301 -26.667 -19 -45s-21.834 -34.5 -36.501 -48.5c-38.667 -38.667 -89.334 -58 -152.001 -58c-57.333 0 -111.333 14 -162 42z" />
    <glyph glyph-name="ij" unicode="ij" horiz-adv-x="544" 
d="M88 0l95 445h75l-95 -445h-75zM193 -171l28.001 60.999l5 -6c4 -3.33301 7.5 -6 10.5 -8s7 -4.5 12 -7.5s10.833 -5.33301 17.5 -7s14 -2.5 22 -2.5c24 0 43.667 6.5 59 19.5s24.666 26.167 27.999 39.5l5 19l108 508h75l-100 -471l-10.5 -47
c-2.33301 -10 -7.33301 -22.667 -15 -38s-17.5 -29.666 -29.5 -42.999c-31.333 -34 -66.333 -51 -105 -51c-39.333 0 -76 11.333 -110 34zM206.001 589.999l19 89h89l-18 -89h-90zM504.001 589.999l19 89h89l-18 -89h-90z" />
    <glyph glyph-name="jcircumflex" unicode="j&#x302;" horiz-adv-x="267" 
d="M100 510c96 86.667 144.999 131 146.999 133c6.66699 4.66699 13.667 7 21 7h48l95 -141h-61l-74 99l-64 -56c-24.667 -21.333 -39.667 -33.833 -45 -37.5s-11.666 -5.5 -18.999 -5.5h-9zM-97.001 -171l34 61c20.667 -20.667 43.334 -31 68.001 -31s44.667 6.5 60 19.5
s24.333 26.167 27 39.5l5 20l108 507h75l-100 -472c-8.66699 -40 -16.334 -66.667 -23.001 -80c-12.667 -25.333 -31.167 -48 -55.5 -68s-52.833 -30 -85.5 -30c-39.333 0 -77 11.333 -113 34z" />
    <glyph glyph-name="uni01D0" unicode="i&#x30c;" horiz-adv-x="239" 
d="M99 639h60.999l86 -68l31 18l25 15l19 11.5c6 3.66699 10.833 6.5 14.5 8.5l11 6c3.66699 2 6.5 3.5 8.5 4.5s3.83301 1.83301 5.5 2.5s3.33398 1.16699 5.00098 1.5s3 0.5 4 0.5h4.5h10l38 -1c-94.667 -58.667 -144.667 -89 -150 -91c-3.33301 -1.33301 -8 -2 -14 -2
h-49zM80.999 0l95 445h75l-95 -445h-75z" />
    <glyph glyph-name="uni01F0" unicode="j&#x30c;" horiz-adv-x="267" 
d="M128 639h60.999l86 -68l31 18l25 15l19 11.5c6 3.66699 10.833 6.5 14.5 8.5l11 6c3.66699 2 6.5 3.5 8.5 4.5s3.83301 1.83301 5.5 2.5s3.33398 1.16699 5.00098 1.5s3 0.5 4 0.5h4.5h10l38 -1c-94.667 -58.667 -144.667 -89 -150 -91c-3.33301 -1.33301 -8 -2 -14 -2
h-49zM-97.001 -171l34 61c20.667 -20.667 43.334 -31 68.001 -31s44.667 6.5 60 19.5s24.333 26.167 27 39.5l5 20l108 507h75l-100 -472c-8.66699 -40 -16.334 -66.667 -23.001 -80c-12.667 -25.333 -31.167 -48 -55.5 -68s-52.833 -30 -85.5 -30
c-39.333 0 -77 11.333 -113 34z" />
    <glyph glyph-name="uni0410_acutecomb" unicode="&#x410;&#x301;" horiz-adv-x="667" 
d="M27 0l408 694h89l113 -694h-92l-33 204h-290l-120 -204h-75zM254 260l249 -0.000976562c-31.333 200.667 -47 318.334 -47 353.001v11c-10 -22.667 -25.5 -53.167 -46.5 -91.5l-90 -158.5c-39 -67.333 -60.833 -105.333 -65.5 -114zM368 759.999l106 55
c34 17.333 54.5 27.5 61.5 30.5s13.833 4.5 20.5 4.5h99l-175 -79l-25 -10l-15 -1h-72z" />
    <glyph glyph-name="ff" unicode="ff" horiz-adv-x="583" 
d="M100 0l82 385.998h-73l12 59h74c2 10.667 4.5 22.834 7.5 36.501l6.5 29.5l5 22.5c2 9 3.33301 15.167 4 18.5s1.83398 7.83301 3.50098 13.5l3.5 12c0.666992 2.33301 1.66699 5.5 3 9.5s2.66602 7.33301 3.99902 10l5 10c5.33301 10.667 12.166 21.834 20.499 33.501
s20 25.167 35 40.5s34 27.833 57 37.5s47.5 14.5 73.5 14.5c24.667 0 50.334 -3.66699 77.001 -11l-15 -67c-31.333 11.333 -57 17 -77 17c-28 0 -50.667 -7 -68 -21s-29.333 -28.667 -36 -44c-2.66699 -5.33301 -15 -59.333 -37 -162h113l-12 -59h-111l-82 -386h-75z
M378 -0.00195312l109.002 512.998c0.666992 1.33301 1.66699 5.83301 3 13.5s2.16602 12.334 2.49902 14.001s1.33301 5.66699 3 12s2.83398 10.5 3.50098 12.5s1.66699 5.83301 3 11.5s2.66602 9.83398 3.99902 12.501s3 6.5 5 11.5s4 9.33301 6 13s4.33301 7.66699 7 12
s5.66699 8.83301 9 13.5c44.667 62.667 100.667 94 168 94c24 0 49.333 -3.66699 76 -11l-14 -67c-31.333 11.333 -57 17 -77 17c-28 0 -50.833 -7 -68.5 -21s-29.834 -28.667 -36.501 -44c-1.33301 -2.66699 -13.333 -56.667 -36 -162h113l-13 -59h-110l-82 -386h-75z" />
    <glyph glyph-name="fi" unicode="fi" horiz-adv-x="536" 
d="M100 0l81.9961 385.999h-73l12 59h74c1.33301 7.33301 4.5 23.333 9.5 48s8.33301 40.334 10 47.001s5 19 10 37s9.83301 31.167 14.5 39.5s10.834 18.5 18.501 30.5s16.5 23.333 26.5 34c33.333 34.667 68.666 52 105.999 52c13.333 0 32.333 -3.66699 57 -11l-15 -68
c-19.333 12 -37.666 18 -54.999 18c-10.667 0 -20 -1.66699 -28 -5s-15.333 -9.5 -22 -18.5s-12.167 -17.5 -16.5 -25.5s-8.66602 -20.333 -12.999 -37s-7.66602 -30.167 -9.99902 -40.5s-5.66602 -26.833 -9.99902 -49.5s-7.83301 -39.667 -10.5 -51h121l-13 -59h-118
l-82 -386h-75zM377.996 -0.000976562l95 445h75l-95 -445h-75zM508.996 638.999l18 84h83l-17 -84h-84z" />
    <glyph glyph-name="fl" unicode="fl" horiz-adv-x="536" 
d="M100 0l82 385.999h-73l12 59h74c1.33301 7.33301 4.5 23.333 9.5 48s8.33301 40.334 10 47.001s5 19 10 37s9.83301 31.167 14.5 39.5s10.834 18.5 18.501 30.5s16.5 23.333 26.5 34c33.333 34.667 68.666 52 105.999 52c13.333 0 32.333 -3.66699 57 -11l-15 -67
c-20 11.333 -38.333 17 -55 17c-28 0 -50.667 -16.667 -68 -50c-4.66699 -9.33301 -18.667 -68.333 -42 -177h121l-13 -59h-118l-82 -386h-75zM378 -0.000976562l153 722h76l-154 -722h-75z" />
    <glyph glyph-name="ffi" unicode="ffi" horiz-adv-x="814" 
d="M100 0l82 386h-73l12 59h74c18.667 86.667 30 135 34 145c16.667 42 41 76.167 73 102.5s65.667 39.833 101 40.5h1c21.333 0 44 -3.66699 68 -11l-15 -67c-24.667 11.333 -46.334 17 -65.001 17c-37.333 0 -65.666 -18.667 -84.999 -56
c-4.66699 -10.667 -18 -67.667 -40 -171h121l-13 -59h-118l-82 -386h-75zM378 0l108 511c10.667 56 24.334 98 41.001 126c15.333 26.667 35 49 59 67c24.667 19.333 52 29 82 29c18 0 37 -3.33301 57 -10l-15 -69c-20.667 12 -38.667 18 -54 18
c-18 0 -35.333 -8.66699 -52 -26c-10.667 -12 -18.334 -25.667 -23.001 -41s-13 -51 -25 -107l-11 -53h120l-12 -59h-118l-82 -386h-75zM655 0l95 445h75l-95 -445h-75zM787 639l18 84h83l-17 -84h-84z" />
    <glyph glyph-name="ffl" unicode="ffl" horiz-adv-x="814" 
d="M100 0l82 386h-73l12 59h74c18.667 86.667 30 135 34 145c16.667 42 41 76.167 73 102.5s65.667 39.833 101 40.5h1c21.333 0 44 -3.66699 68 -11l-15 -67c-26 11.333 -48 17 -66 17c-36.667 0 -64.667 -18.667 -84 -56c-4.66699 -10.667 -18 -67.667 -40 -171h121
l-13 -59h-118l-82 -386h-75zM378 0l108.001 510.996c0 0.666992 1.16699 6.5 3.5 17.5s4 18.5 5 22.5s3.16699 11.833 6.5 23.5s6.33301 20.834 9 27.501s6.66699 15.334 12 26.001s10.833 19.834 16.5 27.501s12.667 15.834 21 24.501s17.166 16.667 26.499 24
c26 19.333 53 29 81 29h1c14.667 0 33.667 -3.66699 57 -11l-15 -67c-20 11.333 -38.333 17 -55 17c-28 0 -50.667 -16.667 -68 -50c-4.66699 -9.33301 -18.667 -68.333 -42 -177h120l-12 -59h-118l-82 -386h-75zM656.001 -0.00390625l153 722h76l-154 -722h-75z" />
    <glyph glyph-name=".notdef" horiz-adv-x="760" 
d="M10 10v755h740v-755h-740zM70 112l276 276l-276 275v-551zM105 70h550l-275 276zM105 705l275 -276l275 276h-550zM414 388l276 -276v551z" />
    <glyph glyph-name="space" unicode=" " horiz-adv-x="333" 
 />
    <glyph glyph-name="exclam" unicode="!" horiz-adv-x="319" 
d="M117 0l18 84h83l-17 -84h-84zM162 175l108 547h84l-125 -547h-67z" />
    <glyph glyph-name="quotedbl" unicode="&#x22;" 
d="M212 363l68 360h78l-85 -360h-61zM380 362l68 360h78l-85 -360h-61z" />
    <glyph glyph-name="numbersign" unicode="#" horiz-adv-x="833" 
d="M88 150c0 20 12.6709 29.999 38.0039 29.999h168l63 140h-188c-10.667 0 -17.334 0.666992 -20.001 2c-12.667 6 -19 15.333 -19 28c0 20.667 13.333 31 40 31h216l141 306c0 0.666992 0.666992 2.33398 2 5.00098s2.33301 4.5 3 5.5s1.5 2.66699 2.5 5s2 4 3 5
s2.16699 2.5 3.5 4.5s2.83301 3.5 4.5 4.5l5 3c1.66699 1 3.5 1.66699 5.5 2s4.33301 0.5 7 0.5c8.66699 0 15.834 -3.16699 21.501 -9.5s8.5 -13.5 8.5 -21.5c0 -2 -3 -10.667 -9 -26l-130 -284h152l140 306c2.66699 6 4.66699 10 6 12s3.5 5.5 6.5 10.5
s6.5 8.33301 10.5 10s8.66699 2.5 14 2.5c8.66699 0 15.667 -3.16699 21 -9.5s8 -13.5 8 -21.5c0 -4 -2.66699 -12.667 -8 -26l-131 -284h130c9.33301 0 16.333 -0.333008 21 -1c18 -2.66699 27 -12.667 27 -30c0 -20 -12.667 -30 -38 -30h-168l-64 -140h188
c26 0 39 -10 39 -30c0 -20.667 -13.333 -31 -40 -31h-216l-141 -307c-8.66699 -19.333 -18 -30.333 -28 -33c-2.66699 -0.666992 -5.33398 -1 -8.00098 -1c-18.667 0 -28.334 11.333 -29.001 34c0.666992 4.66699 3 11.667 7 21l132 286h-153l-140 -307
c-8.66699 -19.333 -18 -30.333 -28 -33c-2.66699 -0.666992 -5.33398 -1 -8.00098 -1c-3.33301 0 -7 0.5 -11 1.5s-8.16699 4.33301 -12.5 10s-6.5 13.167 -6.5 22.5c0.666992 4.66699 3 11.667 7 21l132 286h-130c-8.66699 0 -15.334 0.333008 -20.001 1
c-18 2.66699 -27 12.667 -27 30zM362.004 179.999h151l64 140h-152z" />
    <glyph glyph-name="dollar" unicode="$" 
d="M57 61l26 68.9961c24 -23.333 45.833 -40.333 65.5 -51s47.5 -18.667 83.5 -24l59 282c-28.667 6.66699 -52.5 17.334 -71.5 32.001s-32 31 -39 49s-11.5 32.167 -13.5 42.5s-3 20.833 -3 31.5c0 52 19.333 102.167 58 150.5s89.667 77.833 153 88.5l4 19h59l-4 -18
c28 -2.66699 51.833 -8 71.5 -16s41.167 -21.667 64.5 -41l-26 -66c-38 34.667 -79.333 54 -124 58l-53 -253c10.667 -2.66699 21 -6.16699 31 -10.5s23.167 -12 39.5 -23s29.5 -27.667 39.5 -50s15 -48.5 15 -78.5c0 -61.333 -21.333 -117.666 -64 -168.999
s-93 -81.666 -151 -90.999l-5 -20h-58l3 18c-62 6.66699 -115.333 30.334 -160 71.001zM242 521.996c0 -47.333 23 -78 69 -92l50 235h-1c-37.333 -11.333 -66.333 -30.5 -87 -57.5s-31 -55.5 -31 -85.5zM291 57.9961c40.667 12 71.333 34.334 92 67.001s31 65 31 97
c0 49.333 -22.333 82.666 -67 99.999z" />
    <glyph glyph-name="percent" unicode="%" horiz-adv-x="833" 
d="M167 500c0 62 19.499 119.167 58.499 171.5s81.833 78.5 128.5 78.5c30.667 0 55.5 -13 74.5 -39s28.5 -59.333 28.5 -100c0 -61.333 -19.333 -118.333 -58 -171s-81 -79 -127 -79c-31.333 0 -56.666 13 -75.999 39s-29 59.333 -29 100zM174.999 -7
c0 4 4.66602 12.668 13.999 26.001l585 717c7.33301 8.66699 14 13 20 13c5.33301 0 10 -2 14 -6s6 -8.33301 6 -13c0 -6.66699 -6.66699 -17.334 -20 -32.001l-581 -714c-7.33301 -7.33301 -13.666 -11 -18.999 -11s-9.83301 2 -13.5 6s-5.5 8.66699 -5.5 14z
M239.998 494.001c0 -22 4.16797 -39.5 12.501 -52.5s19.166 -19.5 32.499 -19.5c25.333 0 48.666 20.333 69.999 61s32 81.667 32 123c0 22.667 -3.83301 42 -11.5 58s-19.167 24 -34.5 24c-22 0 -41.167 -13.333 -57.5 -40s-27.666 -54 -33.999 -82s-9.5 -52 -9.5 -72z
M528.999 112.001c0 62 19.499 119.001 58.499 171.001s81.833 78 128.5 78c30.667 0 55.5 -12.833 74.5 -38.5s28.5 -58.834 28.5 -99.501c0 -62 -19.333 -119.333 -58 -172s-81 -79 -127 -79c-31.333 0 -56.666 13.167 -75.999 39.5s-29 59.833 -29 100.5zM601.998 107.002
c0 -48.667 15.665 -72.999 46.998 -72.999c22.667 0 45 19.667 67 59s33 81 33 125c0 24.667 -4.33301 44.5 -13 59.5s-20 22.5 -34 22.5c-7.33301 0 -16.666 -3.33301 -27.999 -10c-25.333 -16.667 -43.666 -44.834 -54.999 -84.501s-17 -72.5 -17 -98.5z" />
    <glyph glyph-name="ampersand" unicode="&#x26;" horiz-adv-x="758" 
d="M70 116c0 52 22.001 99.3359 66.001 142.003c6.66699 6.66699 52.334 42.334 137.001 107.001c-4 26 -6 52 -6 78c0 86 19.167 157.667 57.5 215s83.166 86 134.499 86c30 0 54 -11 72 -33s27 -51 27 -87c0 -33.333 -9.83301 -66.5 -29.5 -99.5
s-61.167 -75.5 -124.5 -127.5c-21.333 -17.333 -37.666 -30 -48.999 -38c7.33301 -34 22.666 -74.833 45.999 -122.5s44.666 -84.834 63.999 -111.501c100.667 79.333 175.334 172.666 224.001 279.999l60 -16c-60 -124 -142.333 -226.667 -247 -308
c0.666992 -0.666992 3.5 -3 8.5 -7l11.5 -9c2.66699 -2 7.16699 -4.66699 13.5 -8s12.166 -5.83301 17.499 -7.5s12 -3.33398 20 -5.00098s16.333 -2.5 25 -2.5c32.667 0 71.667 6 117 18l-14 -67c-42.667 -10 -83 -15 -121 -15h-2c-55.333 0 -103 19.667 -143 59
c-78.667 -39.333 -150 -59 -214 -59c-46.667 0 -83.5 13.167 -110.5 39.5s-40.5 59.166 -40.5 98.499zM151.001 131.003c0 -24.667 7.16797 -45.666 21.501 -62.999s35.166 -26 62.499 -26c52 0 105.333 13.667 160 41c-54 77.333 -90.333 151.333 -109 222
c-4 -3.33301 -14.333 -11 -31 -23s-27.667 -20.333 -33 -25s-14 -12.667 -26 -24s-20.333 -21.333 -25 -30s-9.16699 -19.334 -13.5 -32.001s-6.5 -26 -6.5 -40zM339.002 472.004c0 -1.33301 0.165039 -3.33398 0.498047 -6.00098s0.833008 -8 1.5 -16
s1.33398 -18 2.00098 -30c34.667 26 62.834 50 84.501 72s36.5 41.667 44.5 59s12.833 30.333 14.5 39s2.5 19.334 2.5 32.001c0 22 -4.33301 37.667 -13 47s-18.667 14 -30 14c-26.667 0 -51.167 -16.167 -73.5 -48.5s-33.5 -84.833 -33.5 -157.5v-5z" />
    <glyph glyph-name="quotesingle" unicode="'" horiz-adv-x="278" 
d="M185 362l68 360h78l-85 -360h-61z" />
    <glyph glyph-name="parenleft" unicode="(" horiz-adv-x="389" 
d="M111 62c0 110.667 23.001 226.504 69.001 347.504s113 221.167 201 300.5c15.333 13.333 31.666 26.666 48.999 39.999h61c-139.333 -110.667 -233 -277.334 -281 -500.001c-15.333 -73.333 -23 -141 -23 -203c0 -34.667 2.66699 -67.5 8 -98.5s10.5 -55.333 15.5 -73
s13.5 -37.334 25.5 -59.001s19.333 -34.334 22 -38.001l21 -28.5h-62c-70.667 80.667 -106 184.667 -106 312z" />
    <glyph glyph-name="parenright" unicode=")" horiz-adv-x="389" 
d="M2 -250c144 115.333 239.001 288 285.001 518c12.667 64.667 19 126.667 19 186c0 34 -2.66699 66.5 -8 97.5s-10.333 55.167 -15 72.5s-12.834 36.666 -24.501 57.999s-19 34 -22 38l-21.5 30h61c13.333 -15.333 23.333 -28 30 -38s17.334 -28.333 32.001 -55
s25.667 -58.667 33 -96s11 -78.666 11 -123.999c0 -76.667 -10.333 -155.167 -31 -235.5s-54 -160 -100 -239s-101.333 -144.5 -166 -196.5c-12.667 -10.667 -24.334 -16 -35.001 -16h-48z" />
    <glyph glyph-name="asterisk" unicode="*" 
d="M155 427c0 13.333 5.49414 23.8311 16.4941 31.498s39.5 22.5 85.5 44.5c22 10 39.667 18.333 53 25c-67.333 40.667 -102.666 62.334 -105.999 65.001c-6 5.33301 -9 12 -9 20c0 10 4.5 19.5 13.5 28.5s18.5 13.5 28.5 13.5c6 0 12.333 -2.33301 19 -7
s23 -17.667 49 -39l40 -33c15.333 97.333 23.333 146.666 24 147.999c8 17.333 21 26 39 26c8 0 14.667 -2.5 20 -7.5s8 -11.5 8 -19.5c0 -4 -12.667 -53.333 -38 -148c84.667 52 129.334 78.333 134.001 79c1.33301 0.666992 3.33301 1 6 1c19.333 -2 29 -11 29 -27
c0 -13.333 -5.5 -23.666 -16.5 -30.999s-41.833 -23 -92.5 -47l-46 -22v-1c69.333 -41.333 105.833 -64 109.5 -68s5.5 -9.66699 5.5 -17c0 -12 -4.66699 -22 -14 -30s-18.666 -12 -27.999 -12c-6 0 -14 3.66699 -24 11s-29.333 23 -58 47
c-11.333 9.33301 -20 16.666 -26 21.999c-2 -12 -3.83301 -25 -5.5 -39s-3.16699 -25.167 -4.5 -33.5s-2.66602 -17.666 -3.99902 -27.999s-2.66602 -18.333 -3.99902 -24s-3 -11.667 -5 -18s-4.16699 -11.166 -6.5 -14.499s-5.16602 -6.5 -8.49902 -9.5s-7 -5 -11 -6
s-8.66699 -1.5 -14 -1.5c-14 0 -23.333 7 -28 21c-0.666992 4.66699 12 55.667 38 153l-79 -48c-26 -16 -41.5 -25.333 -46.5 -28s-10.167 -4 -15.5 -4c-18.667 2.66699 -28 11.667 -28 27z" />
    <glyph glyph-name="plus" unicode="+" horiz-adv-x="778" 
d="M109 250c0 20.667 14.002 31 42.002 31h266l56 265c4.66699 24.667 15.667 37 33 37c8 0 15 -3 21 -9s9 -13.333 9 -22c0 -0.666992 -1 -7 -3 -19l-54 -252h259c12.667 0 21.834 -3.33301 27.501 -10s8.5 -13.667 8.5 -21c0 -8 -2.5 -14.5 -7.5 -19.5
s-10.167 -8.16699 -15.5 -9.5c-2 -0.666992 -8.66699 -1 -20 -1h-265l-56 -266l-1 -4c-0.666992 -2 -1.33398 -4.33301 -2.00098 -7s-1.83398 -5.5 -3.50098 -8.5s-3.5 -5.83301 -5.5 -8.5s-4.83301 -4.83398 -8.5 -6.50098s-7.83398 -2.5 -12.501 -2.5c-8 0 -15 3 -21 9
s-9 13.333 -9 22c0 1.33301 1 8 3 20l53 252h-252c-11.333 0 -18.833 0.666992 -22.5 2s-8.5 5 -14.5 11c-3.33301 4.66699 -5 10.334 -5 17.001z" />
    <glyph glyph-name="comma" unicode="," horiz-adv-x="278" 
d="M70 -125l52 125h-25l18 84h83l-14 -69l-4 -15l-68 -125h-42z" />
    <glyph glyph-name="hyphen" unicode="-" horiz-adv-x="333" 
d="M51 193l13 59h266l-13 -59h-266z" />
    <glyph glyph-name="period" unicode="." horiz-adv-x="278" 
d="M96 0l18 84h83l-17 -84h-84z" />
    <glyph glyph-name="slash" unicode="/" 
d="M9 -219c0 6 5.33203 18.667 15.999 38l507 904c10 17.333 21.333 26 34 26c8 0 15 -2.83301 21 -8.5s9 -12.5 9 -20.5c0 -4 -4.66699 -15.333 -14 -34l-508 -906c-5.33301 -9.33301 -10.166 -16.166 -14.499 -20.499s-7.33301 -6.83301 -9 -7.5
s-5.5 -1.33398 -11.5 -2.00098c-8 0 -15 3 -21 9s-9 13.333 -9 22z" />
    <glyph glyph-name="zero" unicode="0" 
d="M90 170c0 53.333 10.3379 121.336 31.0049 204.003c13.333 53.333 30.166 99.833 50.499 139.5s40.166 69.667 59.499 90s40.5 36.5 63.5 48.5s41.667 19.333 56 22s28.5 4 42.5 4s27.333 -1.33301 40 -4s26.167 -8.33398 40.5 -17.001s26.666 -19.834 36.999 -33.501
s19 -32.5 26 -56.5s10.5 -51.667 10.5 -83c0 -50.667 -9.33301 -115.334 -28 -194.001c-12.667 -52 -28.334 -97.667 -47.001 -137s-37.5 -69.833 -56.5 -91.5s-39.667 -39 -62 -52s-41.833 -21.5 -58.5 -25.5s-33.334 -6 -50.001 -6c-18 0 -35 2.5 -51 7.5
s-32.333 13.833 -49 26.5s-30 32.5 -40 59.5s-15 59.833 -15 98.5zM167.005 170.003c0 -50 9.16797 -84.333 27.501 -103s39.5 -28 63.5 -28c50 0 92.333 31 127 93c24 42.667 44.667 102.5 62 179.5s26 136.5 26 178.5c0 84 -31 126 -93 126c-36.667 0 -69.667 -16 -99 -48
c-34.667 -38 -62.334 -101.667 -83.001 -191s-31 -158.333 -31 -207z" />
    <glyph glyph-name="one" unicode="1" 
d="M95 0l12.999 59h125l110 518c-41.333 -15.333 -86.666 -23 -135.999 -23l13 58c82.667 0 150.667 22 204 66h20l-131 -619h124l-12 -59h-330z" />
    <glyph glyph-name="two" unicode="2" 
d="M50 0c1.33301 7.33301 2.83496 15.1699 4.50195 23.5029l3.5 17.5c0.666992 3.33301 1.66699 7 3 11s2.16602 6.66699 2.49902 8s1.33301 3.16602 3 5.49902s3.16699 4 4.5 5l7 5.5l166 136c4 3.33301 15.333 12 34 26s32.834 25 42.501 33l41.5 35
c18 15.333 32 29.5 42 42.5s20.667 27.833 32 44.5s19.666 33.834 24.999 51.501s8 35.5 8 53.5c0 35.333 -10.667 63.333 -32 84s-49.333 31 -84 31c-21.333 0 -41 -4.16699 -59 -12.5s-33.333 -20 -46 -35s-22.834 -28.167 -30.501 -39.5s-15.334 -25.166 -23.001 -41.499
s-11.834 -24.833 -12.501 -25.5l-31 55c4.66699 12 12.334 26 23.001 42s25.167 33.833 43.5 53.5s41.833 36 70.5 49s59.334 19.5 92.001 19.5c53.333 0 95.5 -15 126.5 -45s46.5 -70.333 46.5 -121c0 -25.333 -4 -49.333 -12 -72s-17 -41.834 -27 -57.501
s-26.167 -33.834 -48.5 -54.501s-40.333 -36.334 -54 -47.001s-36.167 -27.334 -67.5 -50.001l-208 -161l329 1l-15 -71h-400z" />
    <glyph glyph-name="three" unicode="3" 
d="M59 80l24 61.9971l15 -25l18 -23c14 -11.333 25.667 -20 35 -26s23.333 -12.167 42 -18.5s39 -9.5 61 -9.5c45.333 0 82.833 18.833 112.5 56.5s44.5 78.834 44.5 123.501c0 27.333 -7.83301 51.333 -23.5 72s-41.834 31 -78.501 31h-74l13 62
c8 0.666992 17.833 1.33398 29.5 2.00098s19.667 1.16699 24 1.5s10 1 17 2s12.333 2 16 3s8 2.33301 13 4s10.167 3.83398 15.5 6.50098c31.333 15.333 55.5 37.166 72.5 65.499s25.5 54.166 25.5 77.499c0 22 -7.33301 39.5 -22 52.5s-34.667 19.5 -60 19.5
c-30.667 0 -60.334 -7.83301 -89.001 -23.5s-53 -35.5 -73 -59.5l-16 -22l-25 54v1c20 24 41.5 44 64.5 60s45 27.167 66 33.5s37.833 10.5 50.5 12.5s24.334 3 35.001 3c43.333 0 79.5 -11.667 108.5 -35s43.5 -53.333 43.5 -90c0 -17.333 -3.33301 -36.166 -10 -56.499
s-22 -44.5 -46 -72.5s-55.333 -51.333 -94 -70c36 -13.333 62.667 -32.333 80 -57s26 -52 26 -82c0 -57.333 -25.833 -111.166 -77.5 -161.499s-111.5 -75.5 -179.5 -75.5c-81.333 0 -142.666 34 -183.999 102z" />
    <glyph glyph-name="four" unicode="4" 
d="M64 171c7.33301 33.333 11.667 52.333 13 57s6.33301 12 15 22l328 405h92l-90 -423h99l-13 -61h-99l-36 -171h-80l36 171h-265zM155.001 232h193l82 386c-14.667 -38 -39.667 -81.5 -75 -130.5s-102 -134.167 -200 -255.5z" />
    <glyph glyph-name="five" unicode="5" 
d="M55 77l45.001 54.999c11.333 -30.667 29.5 -53.667 54.5 -69s52.5 -23 82.5 -23c12 0 24.667 2 38 6s29 11.167 47 21.5s34.667 28 50 53s26.333 55.167 33 90.5c4 19.333 6 38.333 6 57c0 28.667 -6.33301 52.167 -19 70.5s-31.334 27.5 -56.001 27.5
c-49.333 0 -92 -26.667 -128 -80h-67l79 369h335l-13 -64h-263l-1 -1l-43 -204c40 27.333 78.333 41 115 41c44 0 79.833 -15.833 107.5 -47.5s41.5 -72.167 41.5 -121.5c0 -76 -28.5 -141.667 -85.5 -197s-120.167 -83 -189.5 -83c-36.667 0 -70.5 8.83301 -101.5 26.5
s-53.5 41.834 -67.5 72.501z" />
    <glyph glyph-name="six" unicode="6" 
d="M93 180c0 34.667 4.50195 76.335 13.502 125.002s23.5 94.334 43.5 137.001c32.667 69.333 76.5 126 131.5 170s112.167 66 171.5 66c34 0 68.333 -6.66699 103 -20l-13 -60c-38 14 -70.667 21 -98 21c-49.333 0 -95.333 -20.333 -138 -61s-76 -100 -100 -178
c59.333 54.667 121.666 82 186.999 82c23.333 0 43.166 -5.66699 59.499 -17s30.5 -31.333 42.5 -60s18 -57.334 18 -86.001c0 -54.667 -12 -107 -36 -157c-7.33301 -14.667 -17.333 -30.334 -30 -47.001s-28.667 -34.334 -48 -53.001s-42.5 -34 -69.5 -46
s-55.167 -18 -84.5 -18c-17.333 0 -34 2.83301 -50 8.5s-32.167 15.334 -48.5 29.001s-29.5 34.667 -39.5 63s-15 62.166 -15 101.499zM171.002 167.001c0 -84.667 29.6689 -127 89.002 -127c20 0 38.667 4.33301 56 13s31.666 19.667 42.999 33s20.166 25 26.499 35
s11.5 19.667 15.5 29c6.66699 15.333 13.5 38 20.5 68s10.5 54.667 10.5 74c0 28.667 -7 54 -21 76s-37.333 33 -70 33c-40 0 -76.167 -17.333 -108.5 -52s-50.833 -77.667 -55.5 -129h-3c-2 -17.333 -3 -35 -3 -53z" />
    <glyph glyph-name="seven" unicode="7" 
d="M150 -11c24.667 119.333 70.5 230.333 137.5 333s142.833 190.334 227.5 263.001h-349l15 71l416 -1c-8 -39.333 -13.333 -61 -16 -65c-1.33301 -2.66699 -7.66602 -9.33398 -18.999 -20.001c-55.333 -56.667 -101 -110 -137 -160
c-94.667 -132 -158.334 -272.333 -191.001 -421h-84z" />
    <glyph glyph-name="eight" unicode="8" 
d="M75 141c0 44.667 15.5 86.6689 46.5 126.002s75.5 68.333 133.5 87c-31.333 10 -55.333 26.167 -72 48.5s-25 46.5 -25 72.5c0 50 23.833 96.333 71.5 139s102.167 64 163.5 64c46 0 84.167 -13.333 114.5 -40s45.5 -61.334 45.5 -104.001c0 -38 -13.5 -73 -40.5 -105
s-66.833 -57 -119.5 -75c28.667 -9.33301 53.5 -26 74.5 -50s31.5 -53.667 31.5 -89c0 -58.667 -25.833 -112.834 -77.5 -162.501s-110.5 -74.5 -176.5 -74.5c-49.333 0 -90 15 -122 45s-48 69.333 -48 118zM156 141.002c0 -32.667 9.33105 -57.666 27.998 -74.999
s43.334 -26 74.001 -26c47.333 0 86 18.667 116 56s45 79 45 125c0 31.333 -9.16699 56.166 -27.5 74.499s-43.166 27.5 -74.499 27.5c-44.667 0 -82.667 -18 -114 -54s-47 -78.667 -47 -128zM227.998 475.003c0 -28 9.33203 -49.999 27.999 -65.999s43.334 -24 74.001 -24
c44.667 0 81.334 14.5 110.001 43.5s43 62.5 43 100.5c0 28 -9.33301 50 -28 66s-43.334 24 -74.001 24c-46 0 -83 -14.833 -111 -44.5s-42 -62.834 -42 -99.501z" />
    <glyph glyph-name="nine" unicode="9" 
d="M77 24l41.9961 54.002l22.5 -18.5c4.33301 -3.66699 13.333 -7.83398 27 -12.501s28.5 -7 44.5 -7c44.667 0 87.167 21 127.5 63s70.833 99.667 91.5 173c-57.333 -55.333 -119.666 -83 -186.999 -83c-42.667 0 -74 19.333 -94 58c-17.333 32.667 -26 68 -26 106
c0 89.333 28.167 165.166 84.5 227.499s118.5 93.5 186.5 93.5c50.667 0 88.334 -18.333 113.001 -55s37 -85 37 -145c0 -74 -13.667 -148.667 -41 -224c-29.333 -80 -72.166 -146 -128.499 -198s-114.833 -78 -175.5 -78c-49.333 0 -90.666 15.333 -123.999 46z
M205.996 364.002c0 -11.333 1.16602 -22.502 3.49902 -33.502s6.5 -22.5 12.5 -34.5s15.5 -21.833 28.5 -29.5s28.5 -11.5 46.5 -11.5c40.667 0 77 17.333 109 52s50.667 77.667 56 129h3c2.66699 2.66699 4 22.667 4 60c0 46.667 -8.5 78.834 -25.5 96.501
s-36.833 26.5 -59.5 26.5c-33.333 0 -64 -12.667 -92 -38c-21.333 -19.333 -37.666 -40.166 -48.999 -62.499s-20.333 -49.833 -27 -82.5c-6.66699 -32 -10 -56 -10 -72z" />
    <glyph glyph-name="colon" unicode=":" horiz-adv-x="278" 
d="M96 0l18 84h83l-17 -84h-84zM173 361l18 84h83l-17 -84h-84z" />
    <glyph glyph-name="semicolon" unicode=";" horiz-adv-x="278" 
d="M70 -125l52 125h-25l18 84h83l-14 -69l-4 -15l-68 -125h-42zM174 361l18 84h83l-17 -84h-84z" />
    <glyph glyph-name="less" unicode="&#x3c;" horiz-adv-x="778" 
d="M137 252c2 9.33301 4.83594 15.6729 8.50293 19.0059s13.167 8.66602 28.5 15.999l581 265c9.33301 4 16 6 20 6c8 0 15 -3.16699 21 -9.5s9 -13.5 9 -21.5c0 -4.66699 -0.833008 -8.83398 -2.5 -12.501s-4.33398 -6.83398 -8.00098 -9.50098
s-6.83398 -4.83398 -9.50098 -6.50098s-6.16699 -3.5 -10.5 -5.5s-6.83301 -3 -7.5 -3l-533 -243l425 -240c18.667 -10.667 28 -22.334 28 -35.001c0 -8 -3 -15 -9 -21s-13 -9 -21 -9h-1c-4.66699 0 -11.5 2.33301 -20.5 7s-41.167 23 -96.5 55l-373 211
c-8.66699 5.33301 -15.167 10.166 -19.5 14.499s-6.83301 7.83301 -7.5 10.5s-1.33398 6.66699 -2.00098 12z" />
    <glyph glyph-name="equal" unicode="=" horiz-adv-x="778" 
d="M88 150c0 6.66699 2.16797 13 6.50098 19s10.166 9.66699 17.499 11h603c25.333 0 38 -10 38 -30c0 -20.667 -13.667 -31 -41 -31h-584c-26.667 0 -40 10.333 -40 31zM130.001 350c0 20.667 13.333 30.999 40 30.999h585c26.667 0 40 -10.333 40 -31
c0 -4 -0.666992 -7.83301 -2 -11.5s-5 -7.66699 -11 -12s-14 -6.5 -24 -6.5h-591c-10 0 -18 2.33301 -24 7s-9.66699 8.83398 -11 12.501s-2 7.16699 -2 10.5z" />
    <glyph glyph-name="greater" unicode="&#x3e;" horiz-adv-x="778" 
d="M78 -28c0 6.66699 2.5 12.8281 7.5 18.4951s9.16699 9.33398 12.5 11.001s9.33301 4.5 18 8.5l533 243c-6.66699 3.33301 -29.334 16 -68.001 38l-357 202c-18.667 10.667 -28 22.334 -28 35.001c0 8 3 15 9 21s13 9 21 9c6 0 13.333 -2.66699 22 -8l469 -265
c8.66699 -5.33301 15.167 -10.166 19.5 -14.499s6.83301 -7.83301 7.5 -10.5s1.33398 -6.66699 2.00098 -12c-1.33301 -9.33301 -3.83301 -15.666 -7.5 -18.999s-13.5 -8.66602 -29.5 -15.999l-581 -265c-9.33301 -4 -16.333 -6 -21 -6c-8 0 -14.833 3 -20.5 9
s-8.5 13 -8.5 21z" />
    <glyph glyph-name="question" unicode="?" horiz-adv-x="472" 
d="M180 0l18 84h83l-17 -84h-84zM200 677c58 37.333 118.333 55.999 181 55.999c44.667 0 82.667 -9.33301 114 -28s47 -50.667 47 -96c0 -71.333 -34.333 -130 -103 -176c-17.333 -14 -33.166 -28.5 -47.499 -43.5s-26.166 -30 -35.499 -45l-24.5 -40.5
c-7 -12 -12.833 -25.5 -17.5 -40.5s-8 -26.333 -10 -34s-4.33301 -18 -7 -31s-4.33398 -20.833 -5.00098 -23.5h-67c7.33301 34 13 59 17 75s13.5 40.333 28.5 73s34.167 63.334 57.5 92.001c18.667 22.667 38.167 42.167 58.5 58.5s35.666 29.833 45.999 40.5
s18.5 26 24.5 46c4 14 6 28 6 42c0 46.667 -32.333 70 -97 70c-52 0 -104.333 -19.333 -157 -58z" />
    <glyph glyph-name="at" unicode="@" horiz-adv-x="667" 
d="M122 272c0 59.333 12.3301 117.501 36.9971 174.501s56.5 106.333 95.5 148s83.833 75.167 134.5 100.5s101.334 38 152.001 38c112.667 0 169 -65.667 169 -197c0 -32.667 -3.66699 -70 -11 -112s-14.333 -73.667 -21 -95c-18.667 -58 -49.667 -106.333 -93 -145
s-87.666 -58 -132.999 -58c-42 0 -76.333 16.333 -103 49s-40 73.667 -40 123c0 78 25.667 147.333 77 208s106.333 91 165 91c28.667 0 55.334 -9 80.001 -27c-8.66699 68 -43 102 -103 102c-52 0 -103.5 -18 -154.5 -54s-93 -84.333 -126 -145s-49.5 -123.667 -49.5 -189
c0 -68 18.667 -123.833 56 -167.5s86 -65.5 146 -65.5c25.333 0 50 2.66699 74 8s44.667 11.333 62 18l27 10c2.66699 0.666992 11 1 25 1h40c-30.667 -28.667 -67.5 -52.334 -110.5 -71.001s-87.167 -28 -132.5 -28c-78 0 -141.333 27.167 -190 81.5s-73 121.5 -73 201.5z
M384.997 305.001c0 -30.667 6.49902 -58 19.499 -82s32.833 -36 59.5 -36c37.333 0 72.333 24 105 72s49 100.667 49 158c0 36 -7.66699 64.667 -23 86s-34.666 32 -57.999 32c-36 0 -70.333 -23.667 -103 -71s-49 -100.333 -49 -159z" />
    <glyph glyph-name="A" unicode="A" horiz-adv-x="667" 
d="M27 0l408 694h89l113 -694h-92l-33 204h-290l-120 -204h-75zM254 260l249 -0.000976562c-31.333 200.667 -47 318.334 -47 353.001v11c-10 -22.667 -25.5 -53.167 -46.5 -91.5l-90 -158.5c-39 -67.333 -60.833 -105.333 -65.5 -114z" />
    <glyph glyph-name="B" unicode="B" horiz-adv-x="667" 
d="M96 0l147.002 694.002h224c79.333 0 137.166 -15.5 173.499 -46.5s54.5 -65.167 54.5 -102.5c0 -38 -17.833 -74 -53.5 -108s-85.834 -58.667 -150.501 -74c56 -9.33301 96.833 -28.5 122.5 -57.5s38.5 -59.167 38.5 -90.5c0 -32.667 -10.167 -62.834 -30.5 -90.501
s-44.833 -50.834 -73.5 -69.501c-56.667 -36.667 -125.667 -55 -207 -55h-245zM192.002 56.002h141c74 0 132 16 174 48s63 66.667 63 104c0 13.333 -3 26.5 -9 39.5s-15.667 26 -29 39s-33.833 23.5 -61.5 31.5s-60.5 12 -98.5 12h-121zM263.002 392.002
l111.999 0.000976562c78.667 0 138.667 15.833 180 47.5s61.333 64.167 60 97.5c-3.33301 22.667 -12.666 41.667 -27.999 57s-34.666 25.666 -57.999 30.999s-41.833 8.83301 -55.5 10.5s-27.834 2.5 -42.501 2.5h-115z" />
    <glyph glyph-name="C" unicode="C" horiz-adv-x="639" 
d="M130 259c0 56 11.498 111.835 34.498 167.502s53.167 104.667 90.5 147s81.666 76.666 132.999 102.999s103.666 39.5 156.999 39.5c60.667 0 119.667 -11.333 177 -34l-32 -83c-24.667 18 -48.667 31.333 -72 40s-52.666 13 -87.999 13
c-32.667 0 -66.667 -8.83301 -102 -26.5s-68.666 -42.334 -99.999 -74.001s-57.166 -73 -77.499 -124s-30.5 -106.167 -30.5 -165.5c0 -60 15.667 -111.667 47 -155s76.333 -65 135 -65c31.333 0 59.333 3 84 9s42.834 11.833 54.501 17.5s32.834 17.167 63.501 34.5l-9 -70
c-41.333 -21.333 -75.333 -35.833 -102 -43.5s-61.334 -11.5 -104.001 -11.5c-81.333 0 -144.833 27 -190.5 81s-68.5 120.667 -68.5 200z" />
    <glyph glyph-name="D" unicode="D" horiz-adv-x="722" 
d="M95 0l147 693.999h251c39.333 0 74.333 -6 105 -18s55.167 -27.167 73.5 -45.5s33.5 -39.833 45.5 -64.5s20.167 -48.5 24.5 -71.5s6.5 -46.167 6.5 -69.5c0 -103.333 -35.5 -196.666 -106.5 -279.999s-152.5 -131 -244.5 -143c-12 -1.33301 -30.333 -2 -55 -2h-247z
M194 55.999l153 0.000976562c85.333 0 159 36.667 221 110s93 160.666 93 261.999c0 24.667 -3 48.167 -9 70.5s-16 44.5 -30 66.5s-34.5 39.667 -61.5 53s-59.5 20 -97.5 20h-145z" />
    <glyph glyph-name="E" unicode="E" horiz-adv-x="597" 
d="M94 0l147 691h447l-14 -66h-57l-25 1h-240l-35 1l-51 -237h330l-12 -61h-330l-1 -1l-54 -258h85l24 1h194l22 1h46l-15 -72h-461z" />
    <glyph glyph-name="F" unicode="F" horiz-adv-x="569" 
d="M94 0l147 691h433l-14 -66h-55l-25 1h-231l-32 1l-53 -251h301l-13 -61h-302l-66 -315h-90z" />
    <glyph glyph-name="G" unicode="G" horiz-adv-x="667" 
d="M130 259c0 76 19.166 149.333 57.499 220s89.666 127.834 153.999 171.501s131.833 65.5 202.5 65.5c69.333 0 132 -16 188 -48l-32 -83c-1.33301 1.33301 -5.16602 4.66602 -11.499 9.99902s-10.833 9 -13.5 11l-15 11c-7.33301 5.33301 -13.5 9.16602 -18.5 11.499
s-11.833 5.33301 -20.5 9s-17.167 6.33398 -25.5 8.00098s-18.166 3.16699 -29.499 4.5s-23.333 2 -36 2c-52.667 0 -103.334 -19.167 -152.001 -57.5s-87.167 -87.5 -115.5 -147.5s-42.5 -121 -42.5 -183c0 -60 15.5 -112 46.5 -156s75.833 -66 134.5 -66
c44.667 0 89 7 133 21l37 174h-132l13 62h210l-57 -272c-69.333 -32.667 -141.666 -49 -216.999 -49c-80 0 -143 27 -189 81s-69 120.667 -69 200z" />
    <glyph glyph-name="H" unicode="H" horiz-adv-x="708" 
d="M94 0l147 694h90l-64 -302h340l64 302h90l-147 -694h-90l70 330h-340l-70 -330h-90z" />
    <glyph glyph-name="I" unicode="I" horiz-adv-x="278" 
d="M94 0l147 694h90l-147 -694h-90z" />
    <glyph glyph-name="J" unicode="J" horiz-adv-x="472" 
d="M45 20l30 75c30.667 -36.667 69.334 -55 116.001 -55c8.66699 0 17.667 0.833008 27 2.5s20.666 4.66699 33.999 9s26 11.833 38 22.5s22 23.667 30 39c5.33301 11.333 12.333 36.333 21 75l107 506h87l-109 -514c-4.66699 -24 -8.5 -41.333 -11.5 -52
s-9.33301 -25.667 -19 -45s-22.167 -36 -37.5 -50c-39.333 -36.667 -89.333 -55 -150 -55c-58 0 -112.333 14 -163 42z" />
    <glyph glyph-name="K" unicode="K" horiz-adv-x="694" 
d="M95 0l147 694h86l-78 -371l441 371h94l-327 -274l193 -420h-94l-166 363l-162 -135l-48 -228h-86z" />
    <glyph glyph-name="L" unicode="L" horiz-adv-x="542" 
d="M94 0l147 694h90l-134 -629h196l25 1h95l-14 -66h-405z" />
    <glyph glyph-name="M" unicode="M" horiz-adv-x="875" 
d="M100 0l147 693.999h114l61 -350c21.333 -132.667 33 -216.667 35 -252c8 21.333 48 93.333 120 216l231 386h114l-147 -694h-78l132 624l-20 -40l-105 -182l-227 -380h-72l-58 335c-22.667 140.667 -35 229.334 -37 266.001l-132 -623h-78z" />
    <glyph glyph-name="N" unicode="N" horiz-adv-x="708" 
d="M95 0l147 694h126l168 -577l12 -47l132 624h78l-147 -694h-125l-133 452c-22.667 76 -38.667 133.333 -48 172l-132 -624h-78z" />
    <glyph glyph-name="O" unicode="O" horiz-adv-x="736" 
d="M119 255c0 76.667 19.333 150.831 58 222.498s89 129.334 151 173.001s126 65.5 192 65.5c72 0 130.5 -26.333 175.5 -79s67.5 -119.667 67.5 -201c0 -78 -19.5 -152.667 -58.5 -224s-89.5 -128.166 -151.5 -170.499s-125.333 -63.5 -190 -63.5
c-72 0 -130.667 26.167 -176 78.5s-68 118.5 -68 198.5zM211 261.997c0 -66 15.167 -119.002 45.5 -159.002s70.5 -60 120.5 -60c51.333 0 100.5 20.833 147.5 62.5s84 93.334 111 155.001s40.5 122.5 40.5 182.5c0 64 -16 114.833 -48 152.5s-72.667 56.5 -122 56.5
c-74.667 0 -142.5 -38.667 -203.5 -116s-91.5 -168.666 -91.5 -273.999z" />
    <glyph glyph-name="P" unicode="P" horiz-adv-x="639" 
d="M95 0l146.999 694h239c40.667 0 75.834 -5.66699 105.501 -17s51.5 -26.166 65.5 -44.499s24 -36 30 -53s9 -34.167 9 -51.5c0 -60.667 -27.5 -114.834 -82.5 -162.501s-118.167 -73.167 -189.5 -76.5h-173l-61 -289h-90zM254.999 347h131.999
c74 0 129.5 18.5 166.5 55.5s55.5 76.833 55.5 119.5c0 13.333 -2.16699 26 -6.5 38s-11.666 24.333 -21.999 37s-26.5 22.667 -48.5 30s-48.667 11 -80 11h-134z" />
    <glyph glyph-name="Q" unicode="Q" horiz-adv-x="736" 
d="M119 252c0 79.333 19.667 155.166 59 227.499s90 129.833 152 172.5s125.333 64 190 64c72 0 130.5 -26.5 175.5 -79.5s67.5 -119.833 67.5 -200.5c0 -79.333 -20.667 -155.666 -62 -228.999s-95 -131 -161 -173l85 -159h-104l-59 120
c-32.667 -11.333 -65.667 -17 -99 -17c-72 0 -130.667 26 -176 78s-68 117.333 -68 196zM205 257c0 -64 15.6689 -115.832 47.002 -155.499s72.666 -59.5 123.999 -59.5c16 0 35.667 3 59 9l-71 144h90l56 -105c49.333 33.333 89.5 82.666 120.5 147.999
s46.5 131.333 46.5 198c0 64 -15.833 116 -47.5 156s-72.834 60 -123.501 60c-51.333 0 -100.5 -19.667 -147.5 -59s-84.333 -89.5 -112 -150.5s-41.5 -122.833 -41.5 -185.5z" />
    <glyph glyph-name="R" unicode="R" horiz-adv-x="646" 
d="M95 0l147 694h229c80 0 138.167 -16.5 174.5 -49.5s54.5 -69.167 54.5 -108.5c0 -44 -18.833 -85.5 -56.5 -124.5s-89.5 -67.5 -155.5 -85.5l129 -326h-90l-120 316h-158l-67 -316h-87zM262 378h133c76 0 132.167 16 168.5 48s54.5 66.667 54.5 104
c0 31.333 -12.333 56.5 -37 75.5s-58 29.833 -100 32.5h-163z" />
    <glyph glyph-name="S" unicode="S" horiz-adv-x="555" 
d="M54 47l33.0029 83.0029c51.333 -55.333 116.666 -83 195.999 -83c49.333 0 91.166 16.5 125.499 49.5s51.5 68.833 51.5 107.5c0 43.333 -20.333 74.666 -61 93.999c-10.667 4.66699 -32.834 11.167 -66.501 19.5s-57.167 15.166 -70.5 20.499
c-26 10.667 -49.333 28 -70 52s-31 55.333 -31 94c0 57.333 26.667 110.333 80 159s117 73 191 73c35.333 0 65.833 -3.5 91.5 -10.5s53.167 -19.5 82.5 -37.5l-32 -83c-25.333 24 -47 39.667 -65 47c-26 11.333 -56.333 17 -91 17c-48.667 0 -89.667 -14.667 -123 -44
s-50 -61 -50 -95c0 -24 7.5 -43.5 22.5 -58.5s31.5 -25.333 49.5 -31s40.5 -11.834 67.5 -18.501s46.833 -12.667 59.5 -18c28 -12.667 51.667 -32 71 -58s29 -57.667 29 -95c0 -64.667 -27.667 -123 -83 -175s-119 -78 -191 -78c-82 0 -154 23 -216 69z" />
    <glyph glyph-name="T" unicode="T" horiz-adv-x="680" 
d="M168 623l14 66h608l-14 -66h-142l-116 1l-133 -624h-90l133 624l-118 -1h-142z" />
    <glyph glyph-name="U" unicode="U" horiz-adv-x="687" 
d="M137 179c0 20 8.33301 68.332 25 144.999l79 370h89l-87 -411c-11.333 -52.667 -17 -89.667 -17 -111c0 -42 11.667 -75.5 35 -100.5s54 -37.5 92 -37.5c42 0 82 15 120 45s65.333 71 82 123c5.33301 18.667 10.333 39 15 61l91 431h78l-92 -434
c-4.66699 -23.333 -9 -41.833 -13 -55.5s-12.833 -33.167 -26.5 -58.5s-30.834 -48.666 -51.501 -69.999c-63.333 -65.333 -135 -98 -215 -98c-59.333 0.666992 -108.166 19.5 -146.499 56.5s-57.5 85.167 -57.5 144.5z" />
    <glyph glyph-name="V" unicode="V" horiz-adv-x="667" 
d="M161 694l92.999 0.000976562l63 -352c24 -144.667 37 -235.334 39 -272.001c8.66699 26 48.334 97.667 119.001 215l246 409h78l-420 -694h-93z" />
    <glyph glyph-name="W" unicode="W" horiz-adv-x="944" 
d="M161 694l87 0.00195312l29 -383l6 -120l2 -82l-2 -38c8.66699 33.333 43 109.666 103 228.999l197 394h81c26 -306.667 39 -503.334 39 -590.001c0 -8.66699 -0.333008 -20 -1 -34c6 26 42 104.667 108 236l195 388h72l-351 -694h-87c-26 304 -39 499 -39 585l1 38
l-14 -37l-81 -170l-208 -416h-81z" />
    <glyph glyph-name="X" unicode="X" horiz-adv-x="667" 
d="M14 0l346 365v2l-185 327h105l137 -261l244 261h97l-311 -329l205 -365h-105l-157 306l-280 -306h-96z" />
    <glyph glyph-name="Y" unicode="Y" horiz-adv-x="667" 
d="M150 694l105.001 -0.000976562l108 -228c31.333 -67.333 48.666 -106.666 51.999 -117.999l53 62l254 284h88l-359 -399c-10.667 -11.333 -17 -22 -19 -32l-56 -263h-87l56 264c1.33301 6.66699 2 10.334 2 11.001c0 3.33301 -2.33301 9.66602 -7 18.999z" />
    <glyph glyph-name="Z" unicode="Z" horiz-adv-x="611" 
d="M55 0c6 27.333 10.334 42.667 13.001 46c1.33301 2 5.66602 7.66699 12.999 17l494 569l-165 -1h-207l13 63h486l-5 -24l-5 -16l-8 -12l-500 -577h208l23 1h159l-14 -66h-505z" />
    <glyph glyph-name="bracketleft" unicode="[" horiz-adv-x="289" 
d="M47 -250l212 1000h167l-14 -61h-90l-186 -878h90l-13 -61h-166z" />
    <glyph glyph-name="backslash" unicode="\" 
d="M209 708v10c0 9.33301 3 16.833 9 22.5s13 8.5 21 8.5c4 0 7.83301 -0.666992 11.5 -2s6.5 -3.16602 8.5 -5.49902s3.83301 -4.83301 5.5 -7.5s3 -5.5 4 -8.5s1.66699 -5.66699 2 -8s0.833008 -4.83301 1.5 -7.5v-3l124 -914c0 -1.33301 0.166992 -3.16602 0.5 -5.49902
s0.5 -4.16602 0.5 -5.49902c0 -9.33301 -3 -16.833 -9 -22.5s-13 -8.5 -21 -8.5c-4 0 -7.83301 0.666992 -11.5 2s-6.5 3.16602 -8.5 5.49902s-3.83301 4.66602 -5.5 6.99902s-3 5.16602 -4 8.49902s-1.66699 6 -2 8s-0.833008 4.33301 -1.5 7v4z" />
    <glyph glyph-name="bracketright" unicode="]" horiz-adv-x="289" 
d="M-31 -250l13 61h91l186 878h-90l13 61h166l-213 -1000h-166z" />
    <glyph glyph-name="asciicircum" unicode="^" horiz-adv-x="611" 
d="M227 445l180 185h63l101 -185h-61l-82 136l-140 -136h-61z" />
    <glyph glyph-name="underscore" unicode="_" horiz-adv-x="778" 
d="M36 -228c0 13.333 9 20 27 20h548c18.667 0 29.667 -4 33 -12c0.666992 -2.66699 1 -5.66699 1 -9c0 -12.667 -9.66699 -19 -29 -19h-552c-18.667 0 -28 6.66699 -28 20z" />
    <glyph glyph-name="grave" unicode="`" 
d="M233 640h78l106 -130h-62z" />
    <glyph glyph-name="a" unicode="a" horiz-adv-x="480" 
d="M65 85c0 56.667 35.001 98.668 105.001 126.001c56.667 22.667 124.667 34 204 34c8.66699 42.667 13 68.667 13 78c0 19.333 -5.16699 37.166 -15.5 53.499s-27.833 24.5 -52.5 24.5c-8.66699 0 -17 -0.333008 -25 -1s-15.833 -1.83398 -23.5 -3.50098l-20.5 -4.5
c-6 -1.33301 -12.667 -3.5 -20 -6.5s-13 -5.16699 -17 -6.5s-9.66699 -3.83301 -17 -7.5s-11.833 -6 -13.5 -7l-13.5 -8c-7.33301 -4.33301 -11.333 -6.5 -12 -6.5l8 67c56 29.333 111.333 44 166 44c45.333 0 79.166 -13.167 101.499 -39.5s33.5 -56.833 33.5 -91.5
c0 -6 -2.66699 -24.333 -8 -55l-58 -275h-76l7 35c-53.333 -30.667 -112.333 -46 -177 -46c-32 0 -54.833 9.83301 -68.5 29.5s-20.5 41.834 -20.5 66.501zM140.001 104.001c0 -14.667 7.16699 -27.1689 21.5 -37.502s33.5 -15.5 57.5 -15.5c30 0 56.5 5.66699 79.5 17
s38.167 26.333 45.5 45c2.66699 7.33301 8.66699 34 18 80c-65.333 -1.33301 -119 -9.66602 -161 -24.999c-40.667 -15.333 -61 -36.666 -61 -63.999z" />
    <glyph glyph-name="b" unicode="b" horiz-adv-x="517" 
d="M81 0l153.001 722h76l-69 -325c54 38.667 112 58 174 58c37.333 0 66.666 -15.5 87.999 -46.5s32 -69.833 32 -116.5c0 -78 -25 -148 -75 -210s-106.333 -93 -169 -93c-48 0 -88.667 19 -122 57l-10 -46h-78zM185.001 116c0 -5.33301 2 -12.5 6 -21.5
s12.833 -18.5 26.5 -28.5s30.167 -15 49.5 -15c50 0 93.833 22 131.5 66s56.5 97.667 56.5 161c0 41.333 -10.833 71 -32.5 89s-45.834 27 -72.501 27c-36 0 -72 -15.667 -108 -47c-7.33301 -7.33301 -12.666 -17.666 -15.999 -30.999
c-27.333 -128.667 -41 -195.334 -41 -200.001z" />
    <glyph glyph-name="c" unicode="c" horiz-adv-x="444" 
d="M77 170c0 72 27.3271 138.5 81.9941 199.5s118.667 91.5 192 91.5c34.667 0 61.334 -3 80.001 -9s41.334 -17.667 68.001 -35l-25 -66c-30 21.333 -52.667 34.333 -68 39c-17.333 4.66699 -39 7 -65 7c-38 0 -71.667 -12.5 -101 -37.5s-50.666 -54 -63.999 -87
s-20 -65.833 -20 -98.5c0 -35.333 9.33301 -64.333 28 -87s45.334 -34 80.001 -34c24 0 47.667 3.33301 71 10s40.333 12.667 51 18s26.334 14 47.001 26l-8 -67c-60 -34 -118 -51 -174 -51c-53.333 0 -95.666 17.167 -126.999 51.5s-47 77.5 -47 129.5z" />
    <glyph glyph-name="d" unicode="d" horiz-adv-x="517" 
d="M75 155c0 76.667 24.001 145.833 72.001 207.5s101.667 92.5 161 92.5c51.333 0 96.666 -18 135.999 -54l68 321h75l-153 -722h-79l11 52c-54 -42 -108 -63 -162 -63c-42 0 -74 16.833 -96 50.5s-33 72.167 -33 115.5zM154.001 166.999c0 -41.333 10.835 -71 32.502 -89
s46.167 -27 73.5 -27c37.333 0 69.666 14.333 96.999 43c12 12 19.167 20 21.5 24s4.5 11.333 6.5 22c27.333 128 41 194 41 198c0 4.66699 -2.5 11 -7.5 19s-14.333 16.167 -28 24.5s-29.834 12.5 -48.501 12.5c-50 0 -93.833 -21.833 -131.5 -65.5
s-56.5 -97.5 -56.5 -161.5z" />
    <glyph glyph-name="e" unicode="e" horiz-adv-x="444" 
d="M76 171c0 73.333 26.6689 140.003 80.002 200.003s112.666 90 177.999 90c37.333 0 69.666 -11.833 96.999 -35.5s41 -63.167 41 -118.5c0 -20 -3.66699 -49 -11 -87h-310c-0.666992 -6.66699 -1.33398 -12.334 -2.00098 -17.001s-1.16699 -7.83398 -1.5 -9.50098
s-0.5 -3.33398 -0.5 -5.00098v-6.5c0 -38 10.833 -69.5 32.5 -94.5s49.5 -37.5 83.5 -37.5c52.667 0 107.334 18.667 164.001 56l-8 -66c-57.333 -34 -113.666 -51 -168.999 -51c-52.667 0 -94.834 17.333 -126.501 52s-47.5 78 -47.5 130zM168.002 275.003l248 0.000976562
v13c0 41.333 -9.66699 70.166 -29 86.499s-41 24.5 -65 24.5c-32 0 -62.167 -12.333 -90.5 -37s-49.5 -53.667 -63.5 -87z" />
    <glyph glyph-name="f" unicode="f" horiz-adv-x="305" 
d="M100 0l82 385.998h-73l12 59h74c2 10.667 4.5 22.834 7.5 36.501l6.5 29.5l5 22.5c2 9 3.33301 15.167 4 18.5s1.83398 7.83301 3.50098 13.5l3.5 12c0.666992 2.33301 1.66699 5.5 3 9.5s2.66602 7.33301 3.99902 10l5 10c5.33301 10.667 12.166 21.834 20.499 33.501
s20 25.167 35 40.5s34 27.833 57 37.5s47.5 14.5 73.5 14.5c24.667 0 50.334 -3.66699 77.001 -11l-15 -67c-31.333 11.333 -57 17 -77 17c-28 0 -50.667 -7 -68 -21s-29.333 -28.667 -36 -44c-2.66699 -5.33301 -15 -59.333 -37 -162h113l-12 -59h-111l-82 -386h-75z" />
    <glyph glyph-name="g" unicode="g" 
d="M10 -89c0 23.333 8.49707 46.165 25.4971 68.498s37.833 39.833 62.5 52.5c-8 17.333 -12 34 -12 50c0 38.667 16.667 75.334 50 110.001v1c-10.667 20.667 -16 42.334 -16 65.001c0 51.333 20.333 97 61 137s86.334 60 137.001 60c34.667 0 65.334 -11.333 92.001 -34
l-2 4c56.667 20 111 30 163 30l-2 -63c-4.66699 0 -11 0.333008 -19 1s-15.167 1.16699 -21.5 1.5s-12.5 0.5 -18.5 0.5c-6.66699 0 -32 -1.33301 -76 -4l-6 8c12.667 -24 19 -48.333 19 -73c0 -49.333 -20 -94.5 -60 -135.5s-86 -61.5 -138 -61.5c-30.667 0 -59 10 -85 30
c-13.333 -18.667 -20 -35.334 -20 -50.001c0 -26.667 15.333 -40 46 -40h80c16 0 28.333 -0.333008 37 -1s21.834 -2 39.501 -4s31.834 -5.33301 42.501 -10s22 -10.834 34 -18.501s21 -18.167 27 -31.5s9 -28.666 9 -45.999c0 -33.333 -13 -62.833 -39 -88.5
s-57.833 -44.667 -95.5 -57s-76.834 -18.5 -117.501 -18.5c-55.333 0 -102 10.833 -140 32.5s-57 49.834 -57 84.501zM80.9971 -81.001c0 -20 13.333 -36.332 40 -48.999s59 -19 97 -19c43.333 0 82.333 8.16699 117 24.5s52 37.166 52 62.499c0 39.333 -45.667 59 -137 59
h-74c-28.667 0 -51.667 -8.5 -69 -25.5s-26 -34.5 -26 -52.5zM189.997 260c0 -26.667 7.16699 -45.5 21.5 -56.5s30.833 -16.5 49.5 -16.5c36 0 64.333 14.5 85 43.5s31 60.5 31 94.5c0 22.667 -6.16699 40.5 -18.5 53.5s-29.833 19.5 -52.5 19.5
c-36 0 -64.333 -14.5 -85 -43.5s-31 -60.5 -31 -94.5z" />
    <glyph glyph-name="h" unicode="h" horiz-adv-x="517" 
d="M80 0l152.999 722h76l-72 -338c48.667 47.333 101.334 71 158.001 71c74 0 111 -33.333 111 -100c0 -14.667 -2.66699 -36 -8 -64l-62 -291h-78l61 289c3.33301 14.667 5 27.667 5 39c0 44 -27 66 -81 66c-23.333 0 -44.5 -8.16699 -63.5 -24.5s-33 -33 -42 -50
s-16.167 -34.5 -21.5 -52.5c-4 -12.667 -23.333 -101.667 -58 -267h-78z" />
    <glyph glyph-name="i" unicode="i" horiz-adv-x="239" 
d="M81 0l95 445h75l-95 -445h-75zM199 590l19 89h89l-18 -89h-90z" />
    <glyph glyph-name="j" unicode="j" horiz-adv-x="267" 
d="M-97 -171l28.001 60.999c20.667 -20.667 44.334 -31 71.001 -31c16 0 30.167 2.66699 42.5 8s21.666 11.833 27.999 19.5s11.5 15.334 15.5 23.001s6.66699 14.167 8 19.5l1 8l108 508h75l-100 -472c-8.66699 -40 -16.334 -66.667 -23.001 -80
c-12.667 -25.333 -31.167 -48 -55.5 -68s-52.833 -30 -85.5 -30c-39.333 0 -77 11.333 -113 34zM222.001 589.999l19 89h89l-18 -89h-90z" />
    <glyph glyph-name="k" unicode="k" horiz-adv-x="489" 
d="M83 0l153 722h73l-103 -485l248 208h89l-205 -172l133 -273h-82l-108 224l-98 -82l-30 -142h-70z" />
    <glyph glyph-name="l" unicode="l" horiz-adv-x="239" 
d="M81 0l153 722h76l-154 -722h-75z" />
    <glyph glyph-name="m" unicode="m" horiz-adv-x="794" 
d="M80 0l95 449.999h73l-14 -70c50 50 103.667 75 161 75c67.333 0 104 -27 110 -81c54 54 110 81 168 81c74 0 111 -33.333 111 -100c0 -14 -2.66699 -35 -8 -63l-62 -292h-79l62 290c3.33301 14.667 5 27.334 5 38.001c0 44 -27 66 -81 66
c-64 0 -109.333 -53.667 -136 -161l-49 -233h-78l61 289c3.33301 14.667 5 27.667 5 39c0 44 -27 66 -81 66c-23.333 0 -44.5 -8.16699 -63.5 -24.5s-33 -33 -42 -50s-16.167 -34.5 -21.5 -52.5c-4 -12.667 -23.333 -101.667 -58 -267h-78z" />
    <glyph glyph-name="n" unicode="n" horiz-adv-x="517" 
d="M80 0l95 450h73l-14 -70c50 50 103.667 75 161 75c74 0 111 -33.333 111 -100c0 -14.667 -2.66699 -36 -8 -64l-62 -291h-78l61 289c3.33301 14.667 5 27.667 5 39c0 44 -27 66 -81 66c-23.333 0 -44.5 -8.16699 -63.5 -24.5s-33 -33 -42 -50s-16.167 -34.5 -21.5 -52.5
c-4 -12.667 -23.333 -101.667 -58 -267h-78z" />
    <glyph glyph-name="o" unicode="o" 
d="M71 169c0 73.333 28.501 140.332 85.501 200.999s120.5 91 190.5 91c51.333 0 93.166 -17.667 125.499 -53s48.5 -80 48.5 -134c0 -75.333 -28.333 -141.666 -85 -198.999s-119.667 -86 -189 -86c-52 0 -94.333 17 -127 51s-49 77 -49 129zM151.001 175.999
c0 -44 11.168 -75.5 33.501 -94.5s47.833 -28.5 76.5 -28.5c52 0 95.667 24 131 72s53 99.667 53 155c0 36.667 -10 65.667 -30 87s-47 32 -81 32c-52.667 0 -96.334 -22.667 -131.001 -68s-52 -97 -52 -155z" />
    <glyph glyph-name="p" unicode="p" horiz-adv-x="517" 
d="M40 -195l136 640h75l-10 -49c56.667 39.333 115.667 59 177 59c40 0 69.5 -16.333 88.5 -49s28.5 -70 28.5 -112c0 -78.667 -24.667 -149.167 -74 -211.5s-105.666 -93.5 -168.999 -93.5c-48.667 0 -89.334 19 -122.001 57l-52 -241h-78zM185 117
c0 -12 6.83203 -26.001 20.499 -42.001s33.834 -24 60.501 -24c46.667 0 89.667 21.5 129 64.5s59 92.833 59 149.5c0 36.667 -9.83301 66.834 -29.5 90.501s-45.167 35.5 -76.5 35.5c-26 0 -50.333 -7 -73 -21s-37 -26.333 -43 -37
c-2.66699 -4.66699 -11.167 -41.167 -25.5 -109.5s-21.5 -103.833 -21.5 -106.5z" />
    <glyph glyph-name="q" unicode="q" horiz-adv-x="517" 
d="M75 155c0 78 25.1689 147.501 75.502 208.501s105.833 91.5 166.5 91.5c18 0 34.167 -2.16699 48.5 -6.5s26.666 -10.833 36.999 -19.5s17.666 -15.334 21.999 -20.001s9.83301 -11.667 16.5 -21l14 67h76l-138 -650h-78l51 245c-56 -40.667 -110.667 -61 -164 -61
c-41.333 0 -72.833 16.667 -94.5 50s-32.5 72 -32.5 116zM156.002 177.001c0 -36.667 9.66797 -66.835 29.001 -90.502s44.666 -35.5 75.999 -35.5c34 0 66.333 14 97 42l9 9c9.33301 8.66699 15.333 17.334 18 26.001s9 36.667 19 84l17 80v9
c0 18.667 -6 38.334 -18 59.001s-32.333 31 -61 31c-46 0 -88.5 -21.5 -127.5 -64.5s-58.5 -92.833 -58.5 -149.5z" />
    <glyph glyph-name="r" unicode="r" horiz-adv-x="342" 
d="M81 0l95.002 449.999h70l-19 -90c58 61.333 123.333 93 196 95l-14 -67c-46.667 -1.33301 -87.334 -15.666 -122.001 -42.999s-59.334 -59 -74.001 -95c-4.66699 -12 -23.667 -95.333 -57 -250h-75z" />
    <glyph glyph-name="s" unicode="s" horiz-adv-x="383" 
d="M35 34l26.001 68.0059l32 -21c7.33301 -4.66699 22.333 -10.667 45 -18s46 -11 70 -11c37.333 0 64.666 8.66699 81.999 26s26 35.333 26 54c0 18 -7 31.5 -21 40.5s-35.167 16.333 -63.5 22s-45.166 9.5 -50.499 11.5c-22 7.33301 -40.833 19.666 -56.5 36.999
s-23.5 38.333 -23.5 63c0 14 2.83301 29 8.5 45s15.167 32.667 28.5 50s34 31.666 62 42.999s61 17 99 17c46 0 91.333 -10.333 136 -31l-25 -66c-16 8.66699 -28.5 15 -37.5 19s-22.333 8 -40 12s-37.167 6 -58.5 6c-35.333 0 -60.5 -7.83301 -75.5 -23.5
s-22.5 -31.834 -22.5 -48.501c0 -18 7.16699 -31.167 21.5 -39.5s35.166 -14.833 62.499 -19.5s46.333 -9.33398 57 -14.001c17.333 -7.33301 33.833 -19.5 49.5 -36.5s23.5 -38.833 23.5 -65.5c0 -16.667 -3.33301 -33.834 -10 -51.501s-17 -35.334 -31 -53.001
s-34.5 -32.167 -61.5 -43.5s-58.167 -17 -93.5 -17c-58.667 0 -111.667 15 -159 45z" />
    <glyph glyph-name="t" unicode="t" horiz-adv-x="361" 
d="M100 386l13.002 58.9971h86l27 126h70l-27 -126h141l-12 -59h-142l-15.5 -73c-5 -23.333 -9 -42.833 -12 -58.5s-6.16699 -30.667 -9.5 -45s-5.83301 -26 -7.5 -35s-3.33398 -17.333 -5.00098 -25s-2.83398 -13.667 -3.50098 -18s-1.33398 -8.16602 -2.00098 -11.499
s-1.16699 -6.16602 -1.5 -8.49902s-0.5 -4.16602 -0.5 -5.49902v-6c0 -31.333 13.333 -47 40 -47c30 0 62 11 96 33l3 -59c-51.333 -25.333 -103.666 -38 -156.999 -38c-40 0 -60 25.667 -60 77v9.5c0 2.33301 0.166992 5 0.5 8s0.833008 6.5 1.5 10.5s1.5 8.5 2.5 13.5
l4 20.5c1.66699 8.66699 3.5 17.667 5.5 27l8 38l10.5 49.5l13.5 64l17 79.5h-84z" />
    <glyph glyph-name="u" unicode="u" horiz-adv-x="517" 
d="M97 63c0 11.333 4.66797 39.002 14.001 83.002l63 299h78l-67 -319c-4.66699 -24.667 -7 -38.334 -7 -41.001c0 -16 6 -26.667 18 -32s29.333 -8 52 -8c35.333 0 64.5 8.66699 87.5 26s38.5 35.666 46.5 54.999c1.33301 3.33301 4.66602 16.333 9.99902 39l60 280h78
l-94 -445h-76l10 48c-54.667 -39.333 -117.667 -59 -189 -59c-56 0 -84 24.667 -84 74z" />
    <glyph glyph-name="v" unicode="v" horiz-adv-x="461" 
d="M108 445l78.001 0.000976562c38 -222.667 57 -352.334 57 -389.001v-6c9.33301 30 83.666 161.667 222.999 395h75l-267 -445h-88z" />
    <glyph glyph-name="w" unicode="w" horiz-adv-x="683" 
d="M108 445l76 -0.000976562l20 -224l5 -89l1 -40l-2 -41c2 8.66699 5.66699 19.667 11 33s12.833 30.333 22.5 51l26 55l33 66.5l32 63l35 67.5l30.5 58h70l22 -250l5 -72l2 -52l-1 -21c9.33301 32.667 74 164.334 194 395.001h73l-232 -445h-87l-18 197l-6 98l-1 68l2 31
c-8.66699 -36.667 -72 -168 -190 -394h-79z" />
    <glyph glyph-name="x" unicode="x" horiz-adv-x="461" 
d="M0 0l243 229l-143 216h84l102 -165l170 165h82l-229 -216l151 -229h-83l-109 188l-185 -188h-83z" />
    <glyph glyph-name="y" unicode="y" horiz-adv-x="461" 
d="M0 -198l8.00098 65.998c32 -10.667 55 -16 69 -16c19.333 0 35.666 7.33301 48.999 22s33 43.334 59 86.001l12 20c7.33301 10.667 11 18.334 11 23.001c0 3.33301 -1 8.33301 -3 15l-96 427h79c42 -188.667 63 -309.334 63 -362.001
c0 -9.33301 -0.666992 -20.333 -2 -33c3.33301 11.333 8.33301 25.166 15 41.499s16 35.5 28 57.5l32 59c9.33301 17.333 22.5 40.166 39.5 68.499l36.5 60.5l37.5 61c17.667 28.667 27.167 44.334 28.5 47.001h75l-336 -544c-20 -31.333 -39 -55.166 -57 -71.499
s-32 -26.166 -42 -29.499s-21.667 -5 -35 -5c-25.333 0 -49 2.33301 -71 7z" />
    <glyph glyph-name="z" unicode="z" horiz-adv-x="435" 
d="M27 0c4.66699 23.333 8 36.667 10 40s12.333 14.333 31 33l314 313l-35 -1h-224l13 60h357l-8 -40l-345 -343h207l21 1h46l-13 -63h-374z" />
    <glyph glyph-name="braceleft" unicode="{" 
d="M99 219l13 62.002c40 0 77.333 9.66699 112 29s57.334 45.666 68.001 78.999c34 156.667 53 241 57 253c7.33301 24 19 42.667 35 56c2 2 5 4.33301 9 7c39.333 30 95.333 45 168 45h45l-13 -61h-15c-34 0 -61.833 -1.83301 -83.5 -5.5s-37.334 -9.33398 -47.001 -17.001
s-16.334 -15.167 -20.001 -22.5s-6.5 -16.333 -8.5 -27c0 -3.33301 -0.333008 -5.66602 -1 -6.99902l-16 -75.5l-12 -57.5l-8.5 -40.5l-6.5 -29.5c-1.33301 -6 -2.83301 -12 -4.5 -18s-3 -10.5 -4 -13.5s-2.16699 -6.16699 -3.5 -9.5c-14.667 -32 -39 -58.667 -73 -80
s-70.667 -33.333 -110 -36c36 -2 67.167 -13.667 93.5 -35s39.5 -50 39.5 -86c0 -12 -8.83301 -58.333 -26.5 -139s-26.5 -124.667 -26.5 -132c0 -31.333 41 -47 123 -47h23l-13 -61h-42c-48.667 1.33301 -83.667 6.33301 -105 15c-44 17.333 -66 44.666 -66 81.999
c0 10 9 56.167 27 138.5s27 128.166 27 137.499c0 28.667 -12.667 51.834 -38 69.501s-57.666 26.5 -96.999 26.5z" />
    <glyph glyph-name="bar" unicode="|" horiz-adv-x="278" 
d="M70 -228c0 2 0.663086 5.6709 1.99609 11.0039l197 932c4 22.667 12.333 34 25 34c12 0 18 -6.66699 18 -20c0 -0.666992 -1 -7 -3 -19l-197 -928c0 -0.666992 -0.333008 -2.33398 -1 -5.00098s-1.16699 -4.83398 -1.5 -6.50098s-1.16602 -3.83398 -2.49902 -6.50098
s-2.66602 -4.83398 -3.99902 -6.50098s-3.16602 -3.16699 -5.49902 -4.5s-5.16602 -2 -8.49902 -2c-4.66699 0 -9 2 -13 6s-6 9 -6 15z" />
    <glyph glyph-name="braceright" unicode="}" 
d="M0 -250l13.0039 61.0029h14c26 0 47.167 0.666992 63.5 2s33.833 5.66602 52.5 12.999s31 18 37 32c1.33301 2.66699 16.333 71.667 45 207c0 1.33301 1.16699 6.83301 3.5 16.5s3.66602 15.5 3.99902 17.5s1.66602 7.16699 3.99902 15.5s4.33301 14 6 17
s4.16699 8 7.5 15s6.83301 12.667 10.5 17l13.5 15.5c5.33301 6 11.333 11.667 18 17c39.333 32.667 83.666 50.667 132.999 54c-36 2 -67 13.667 -93 35s-39 50 -39 86c0 12 9 58.833 27 140.5s26.667 126.167 26 133.5l-2 9c-8 15.333 -22.5 25 -43.5 29s-54.5 6 -100.5 6
l13 61h42c50 -1.33301 85.333 -6.33301 106 -15c43.333 -18 65 -45.667 65 -83c0 -9.33301 -9 -55.333 -27 -138s-27 -128.334 -27 -137.001c0 -28.667 12.667 -51.834 38 -69.501s57.666 -26.5 96.999 -26.5l-13 -61v-1c-40 0 -77.333 -9.5 -112 -28.5
s-57.334 -44.833 -68.001 -77.5c-3.33301 -10.667 -12.666 -53.5 -27.999 -128.5s-24.666 -117.833 -27.999 -128.5c-10.667 -32.667 -34.334 -58.5 -71.001 -77.5s-84 -28.5 -142 -28.5h-45z" />
    <glyph glyph-name="asciitilde" unicode="~" horiz-adv-x="611" 
d="M201 557c8 34.667 26.833 63.167 56.5 85.5s61.167 33.5 94.5 33.5c24.667 0 55.5 -9.5 92.5 -28.5s65.5 -28.5 85.5 -28.5c40.667 0 67 19 79 57h61c-8 -34 -26.5 -62.333 -55.5 -85s-60.833 -34 -95.5 -34c-24.667 0 -55.5 9.66699 -92.5 29s-65.5 29 -85.5 29
c-16 0 -31.667 -4.66699 -47 -14s-26 -24 -32 -44h-61z" />
    <glyph glyph-name="uni00A0" unicode="&#xa0;" horiz-adv-x="333" 
 />
    <glyph glyph-name="exclamdown" unicode="&#xa1;" horiz-adv-x="319" 
d="M76 -195l125 548h67l-108 -548h-84zM212 444l18 84h83l-17 -84h-84z" />
    <glyph glyph-name="cent" unicode="&#xa2;" 
d="M78 175c0 68 26.665 129.999 79.998 185.999s116 88.667 188 98l18 88h59l-19 -87c30.667 -1.33301 55.834 -4.66602 75.501 -9.99902s44.834 -16.333 75.501 -33l-26 -66c-21.333 12 -36.166 20.167 -44.499 24.5s-20.333 8.5 -36 12.5s-34.834 6.66699 -57.501 8
l-73 -342c28.667 3.33301 53.5 7.83301 74.5 13.5s36.333 10.667 46 15s26.167 12.5 49.5 24.5l-8 -67c-62 -29.333 -120.667 -46 -176 -50l-18 -87h-58l18 88c-48 6 -88 25.333 -120 58s-48 74.667 -48 126zM156.998 182.999c0 -36.667 9.83301 -65.668 29.5 -87.001
s44.167 -34.666 73.5 -39.999l72 338c-51.333 -8.66699 -93.333 -34 -126 -76s-49 -87 -49 -135z" />
    <glyph glyph-name="sterling" unicode="&#xa3;" horiz-adv-x="754" 
d="M66 46c0 24.667 13.5049 47.333 40.5049 68s62.5 31 106.5 31c14.667 0 31.334 -2.33301 50.001 -7l9 27l36 167h-72l13 58h72c24.667 115.333 38.667 178 42 188c18.667 54 48.334 98.5 89.001 133.5s82.667 52.5 126 52.5c38 0 68.5 -14.167 91.5 -42.5
s34.5 -66.833 34.5 -115.5c0 -19.333 -0.833008 -35.166 -2.5 -47.499s-6.16699 -24 -13.5 -35s-18 -16.5 -32 -16.5c-21.333 0 -31 11.333 -29 34l-8 1c6 27.333 9 50.333 9 69c0 60.667 -21 91 -63 91c-26 0 -50.667 -11.833 -74 -35.5s-40.666 -55.5 -51.999 -95.5
c-4 -13.333 -17.333 -73.666 -40 -180.999h100l-13 -58h-100c-20.667 -97.333 -32.834 -153.333 -36.501 -168s-10.834 -32 -21.501 -52l22.5 -11.5c11 -5.66699 18.333 -9.33398 22 -11.001s10 -4.83398 19 -9.50098s15.333 -7.66699 19 -9
s9.33398 -3.66602 17.001 -6.99902s13.667 -5.5 18 -6.5s9.66602 -2.33301 15.999 -4s12.166 -2.66699 17.499 -3s11 -0.5 17 -0.5c32 0 54 31.667 66 95h79c-8.66699 -42.667 -31.334 -79.334 -68.001 -110.001s-77.334 -46 -122.001 -46
c-12.667 0 -25.334 1.16699 -38.001 3.5s-26.334 6.66602 -41.001 12.999l-32 14c-6.66699 3 -18.334 9.16699 -35.001 18.5l-25 13c-43.333 -41.333 -90.666 -62 -141.999 -62c-20.667 0 -37.834 5.33301 -51.501 16s-20.5 24.334 -20.5 41.001zM143.005 58.999
c0 -5.33301 4.33203 -8 12.999 -8c18 0 39 8.33301 63 25c-22 4.66699 -36.667 7 -44 7c-8.66699 0 -15.667 -2 -21 -6s-8.66602 -8 -9.99902 -12z" />
    <glyph glyph-name="currency" unicode="&#xa4;" horiz-adv-x="757" 
d="M40 -27c0 5.33301 4.66504 12.501 13.998 21.501s29.666 26.167 60.999 51.5l59 48c-25.333 37.333 -38 82 -38 134c0 84 31.667 160.667 95 230l26 27c-54 68.667 -81.667 104.334 -83 107.001c-0.666992 1.33301 -1 4.66602 -1 9.99902
c0.666992 3.33301 3 6.83301 7 10.5s8 5.5 12 5.5c6 0 13 -4.5 21 -13.5s33 -40.5 75 -94.5h1c30.667 24 64.834 42.167 102.501 54.5s73.167 18.5 106.5 18.5c74.667 0 134.667 -24.333 180 -73h1c83.333 68.667 126.666 104 129.999 106c2.66699 1.33301 5.66699 2 9 2h3
c10.667 -1.33301 16 -7.66602 16 -18.999c0 -4 -1 -8 -3 -12c-15.333 -14.667 -38.666 -34.5 -69.999 -59.5s-51.666 -41.5 -60.999 -49.5c26 -40.667 39 -85.334 39 -134.001c0 -84 -31.667 -160.667 -95 -230l-27 -27c54 -68 81.667 -103.667 83 -107
c0 -0.666992 0.333008 -2 1 -4v-6c-0.666992 -4 -3 -7.83301 -7 -11.5s-7.66699 -5.5 -11 -5.5c-6 0 -12.333 3.66699 -19 11s-25.334 31 -56.001 71l-21 27c-67.333 -48.667 -137.666 -73 -210.999 -73c-74.667 0 -134.667 24.333 -180 73
c-85.333 -70 -129.666 -105.667 -132.999 -107l-3 -1h-7c-10.667 1.33301 -16 7.66602 -16 18.999zM175.998 228.001c0 -58.667 19.333 -106.501 58 -143.501s87.334 -55.5 146.001 -55.5c83.333 0 157.666 32.167 222.999 96.5s98 136.833 98 217.5
c0 59.333 -19 107.5 -57 144.5s-86.667 55.5 -146 55.5c-82 0 -156.167 -32.167 -222.5 -96.5s-99.5 -137.166 -99.5 -218.499z" />
    <glyph glyph-name="yen" unicode="&#xa5;" horiz-adv-x="667" 
d="M12 189c0 14.667 7.66504 24.333 22.998 29c4.66699 1.33301 12 2 22 2h279c6.66699 31.333 10 49.333 10 54c0 5.33301 -12 33.333 -36 84h-220c-9.33301 0 -16.833 2.16699 -22.5 6.5s-9.16699 8.5 -10.5 12.5s-2 7.66699 -2 11c0 4 0.666992 7.83301 2 11.5s5 8 11 13
s14 7.5 24 7.5h189l-131 274h106l128 -274h93l245 274h88l-247 -274h159c20.667 0 34.334 -2.33301 41.001 -7c8.66699 -6.66699 13 -15 13 -25c0 -13.333 -6 -22.333 -18 -27c-4.66699 -2 -13.667 -3 -27 -3h-224l-24 -26c-8 -8.66699 -14 -15.5 -18 -20.5
s-8.16699 -9.5 -12.5 -13.5s-7.5 -7.83301 -9.5 -11.5s-3.83301 -6.5 -5.5 -8.5s-3.16699 -5.5 -4.5 -10.5s-2.33301 -8.5 -3 -10.5s-1.66699 -7.33301 -3 -16s-2.66602 -15.667 -3.99902 -21h272c13.333 0 23 -3.5 29 -10.5s9 -13.833 9 -20.5
c0 -15.333 -7.33301 -25 -22 -29c-4.66699 -1.33301 -11.667 -2 -21 -2h-280l-34 -158h-87l34 158h-274c-12 0 -21.167 3.33301 -27.5 10s-9.5 13.667 -9.5 21zM411.998 357.999l3 -10l8 10h-11z" />
    <glyph glyph-name="brokenbar" unicode="&#xa6;" horiz-adv-x="167" 
d="M15 -230l78.999 379.999c3.33301 12.667 10.333 19 21 19c4.66699 0 8.83398 -1.83301 12.501 -5.5s5.83398 -8.16699 6.50098 -13.5l-75 -360l-1 -5c-0.666992 -3.33301 -1.16699 -5.33301 -1.5 -6s-0.833008 -2.5 -1.5 -5.5s-1.16699 -5 -1.5 -6s-1 -2.66699 -2 -5
s-2 -4 -3 -5s-2.33301 -2.16699 -4 -3.5s-3.33398 -2.16602 -5.00098 -2.49902s-3.5 -0.5 -5.5 -0.5c-5.33301 0 -9.83301 1.83301 -13.5 5.5s-5.5 8.16699 -5.5 13.5zM137.999 349.999l80 379.999c3.33301 12.667 10 19 20 19c5.33301 0 10 -2 14 -6s6 -9 6 -15
c0 -5.33301 -1.33301 -12.666 -4 -21.999l-77 -357c-3.33301 -12 -10 -18 -20 -18c-5.33301 0 -9.83301 1.83301 -13.5 5.5s-5.5 8.16699 -5.5 13.5z" />
    <glyph glyph-name="section" unicode="&#xa7;" horiz-adv-x="444" 
d="M16 -133l25.999 67.9951h1c30.667 -52.667 78.667 -79 144 -79c31.333 0 56.333 15.333 75 46s28 59.334 28 86.001c0 28.667 -10.667 52 -32 70c-1.33301 1.33301 -10.833 7.5 -28.5 18.5s-33.5 22 -47.5 33s-27.333 27.833 -40 50.5s-19 47.334 -19 74.001
c0 35.333 10.167 69.833 30.5 103.5s45.833 59.5 76.5 77.5c-30 37.333 -45 74.333 -45 111c0 50 19.333 97 58 141s84.667 66 138 66c24 0 45.833 -3.66699 65.5 -11s33.334 -14.166 41.001 -20.499s16.834 -15.166 27.501 -26.499l-26 -66c-29.333 42 -69.333 63 -120 63
c-31.333 0 -56.333 -15.333 -75 -46s-28 -59.667 -28 -87c0 -28 10.333 -51.333 31 -70c1.33301 -1.33301 11 -7.5 29 -18.5s33.833 -22 47.5 -33s27 -27.833 40 -50.5s19.5 -47.334 19.5 -74.001c0 -35.333 -10.167 -69.666 -30.5 -102.999s-45.833 -59.333 -76.5 -78
c30 -36.667 45 -73.667 45 -111c0 -49.333 -19.167 -96 -57.5 -140s-84.833 -66 -139.5 -66c-29.333 0 -55.333 4.33301 -78 13s-38.834 17.334 -48.501 26.001s-20.167 19.667 -31.5 33zM202.999 246.995c0 -6.66699 0.501953 -13.001 1.50195 -19.001
s2.66699 -11.5 5 -16.5l6 -13c1.66699 -3.66699 4.66699 -7.5 9 -11.5s7.5 -7.16699 9.5 -9.5s5.66699 -5.16602 11 -8.49902s8.66602 -5.5 9.99902 -6.5s5 -3.16699 11 -6.5l8 -4c27.333 11.333 47.166 30.333 59.499 57s18.5 50.667 18.5 72
c0 20 -5.83301 37.667 -17.5 53s-22.667 25.666 -33 30.999s-17.5 8 -21.5 8c-14 0 -30.333 -13.667 -49 -41s-28 -55.666 -28 -84.999z" />
    <glyph glyph-name="dieresis" unicode="&#xa8;" 
d="M229 570l19 89h89l-18 -89h-90zM424 571l19 89h89l-18 -89h-90z" />
    <glyph glyph-name="copyright" unicode="&#xa9;" horiz-adv-x="1111" 
d="M96 141c0 80 17.666 158.833 52.999 236.5s81.333 145.167 138 202.5s122.834 103.666 198.501 138.999s151.834 53 228.501 53c120 0 217.5 -39.333 292.5 -118s112.5 -177 112.5 -295c0 -80 -17.667 -158.833 -53 -236.5s-81.333 -145.167 -138 -202.5
s-122.834 -103.666 -198.501 -138.999s-152.167 -53 -229.5 -53c-119.333 0 -216.5 39.333 -291.5 118s-112.5 177 -112.5 295zM135.999 141c0 -107.333 33.666 -196.333 100.999 -267s155 -106 263 -106c72.667 0 144.334 16.667 215.001 50s132.667 77 186 131
s96.333 117.333 129 190s49 146 49 220c0 108 -33.833 197.167 -101.5 267.5s-155.167 105.5 -262.5 105.5c-72 0 -143.5 -16.667 -214.5 -50s-133 -77 -186 -131s-96 -117.167 -129 -189.5s-49.5 -145.833 -49.5 -220.5zM333.998 200c0 78 39.502 148.831 118.502 212.498
s172.5 95.5 280.5 95.5c50.667 0 97.667 -8 141 -24l-32 -83c-0.666992 0.666992 -4.16699 3.33398 -10.5 8.00098s-11 7.83398 -14 9.50098s-8.5 4.5 -16.5 8.5s-15.333 7 -22 9s-15.334 3.83301 -26.001 5.5s-22 2.5 -34 2.5c-78.667 0 -147.334 -24.167 -206.001 -72.5
s-88 -102.5 -88 -162.5c0 -45.333 18.667 -84.5 56 -117.5s89.333 -49.5 156 -49.5c32.667 0 58.667 3 78 9s45.666 17.667 78.999 35l-8 -69c-33.333 -15.333 -60.666 -25.666 -81.999 -30.999s-48 -8 -80 -8c-87.333 0 -157.5 21.167 -210.5 63.5
s-79.5 95.166 -79.5 158.499z" />
    <glyph glyph-name="ordfeminine" unicode="&#xaa;" horiz-adv-x="444" 
d="M10 304c0 7.33301 2.49805 14 7.49805 20s11.167 9.33301 18.5 10c4 0.666992 10.333 1 19 1h294c20 0 32.667 -1.33301 38 -4c10.667 -6.66699 16 -15.667 16 -27c0 -20 -13 -30 -39 -30h-305c-1.33301 0 -3.16602 -0.166992 -5.49902 -0.5s-4.16602 -0.5 -5.49902 -0.5
c-14.667 0 -24.667 3.5 -30 10.5s-8 13.833 -8 20.5zM59.998 440c0 20.667 5.16699 38.167 15.5 52.5s31.5 26.833 63.5 37.5c47.333 16 102.333 24 165 24c9.33301 44 14 73 14 87c0 44 -14 66 -42 66c-41.333 0 -85.666 -17 -132.999 -51l8 68
c45.333 28 91.666 42 138.999 42c34 0 60.333 -11.833 79 -35.5s28 -52.5 28 -86.5c0 -15.333 -8.66699 -62.333 -26 -141l-27 -128h-75l6 33c-44.667 -29.333 -94.334 -44 -149.001 -44c-23.333 0 -40.166 7.66699 -50.499 23s-15.5 33 -15.5 53zM135.998 462
c0 -8.66699 4.33301 -16.833 13 -24.5s22.334 -11.5 41.001 -11.5c21.333 0 42.166 6 62.499 18s33.833 31.667 40.5 59c-60.667 -2.66699 -102 -7 -124 -13s-33 -15.333 -33 -28z" />
    <glyph glyph-name="guillemotleft" unicode="&#xab;" horiz-adv-x="667" 
d="M157 219v1l274 219h61l-257 -219v-1l164 -219h-62zM323 219v1l274 219h61l-256 -219v-1l163 -219h-61z" />
    <glyph glyph-name="logicalnot" unicode="&#xac;" horiz-adv-x="667" 
d="M126 332c0 13.333 11.334 20.001 34.001 20.001h493c17.333 0 26 -7.33301 26 -22c0 -4 -17.667 -89 -53 -255c-4.66699 -21.333 -12.334 -32 -23.001 -32c-5.33301 0 -9.83301 2 -13.5 6s-5.5 8 -5.5 12c0 9.33301 17 93 51 251h-478c-10 0 -17.667 1.33301 -23 4l-5 6
c-2 5.33301 -3 8.66602 -3 9.99902z" />
    <glyph glyph-name="uni00AD" unicode="&#xad;" horiz-adv-x="167" 
d="M51 193l13 59h266l-13 -59h-266z" />
    <glyph glyph-name="registered" unicode="&#xae;" horiz-adv-x="1111" 
d="M96 141c0 80 17.666 158.833 52.999 236.5s81.333 145.167 138 202.5s122.834 103.666 198.501 138.999s151.834 53 228.501 53c120 0 217.5 -39.333 292.5 -118s112.5 -177 112.5 -295c0 -80 -17.667 -158.833 -53 -236.5s-81.333 -145.167 -138 -202.5
s-122.834 -103.666 -198.501 -138.999s-152.167 -53 -229.5 -53c-119.333 0 -216.5 39.333 -291.5 118s-112.5 177 -112.5 295zM135.999 141c0 -107.333 33.666 -196.333 100.999 -267s155 -106 263 -106c72.667 0 144.334 16.667 215.001 50s132.667 77 186 131
s96.333 117.333 129 190s49 146 49 220c0 108 -33.833 197.167 -101.5 267.5s-155.167 105.5 -262.5 105.5c-72 0 -143.5 -16.667 -214.5 -50s-133 -77 -186 -131s-96 -117.167 -129 -189.5s-49.5 -145.833 -49.5 -220.5zM343.998 0l102.999 486h227
c80.667 0 139.834 -12.333 177.501 -37s56.5 -51.667 56.5 -81c0 -30.667 -17 -59.667 -51 -87s-80.333 -47.333 -139 -60l142 -221h-90l-131 212h-163l-45 -212h-87zM488.997 274l123.999 0.000976562c40.667 0 75.667 2.66699 105 8s51.333 12.666 66 21.999
s25.334 18.5 32.001 27.5s10 18.167 10 27.5c0 47.333 -58.333 71 -175 71h-128z" />
    <glyph glyph-name="macron" unicode="&#xaf;" 
d="M200 618l14 64h360l-14 -64h-360z" />
    <glyph glyph-name="degree" unicode="&#xb0;" horiz-adv-x="333" 
d="M177 565c0 32.667 13.1689 62.332 39.502 88.999s57.166 40 92.499 40c26.667 0 49 -8.66699 67 -26s27 -39.666 27 -66.999c0 -32.667 -13.333 -62.334 -40 -89.001s-57.334 -40 -92.001 -40c-26 0 -48.167 8.83301 -66.5 26.5s-27.5 39.834 -27.5 66.501z
M217.002 564.998c0 -15.333 5 -27.833 15 -37.5s23 -14.5 39 -14.5c24 0 45.333 9.33301 64 28s28 39 28 61c0 16 -5 28.667 -15 38s-23 14 -39 14c-23.333 0 -44.5 -9.33301 -63.5 -28s-28.5 -39 -28.5 -61z" />
    <glyph glyph-name="plusminus" unicode="&#xb1;" horiz-adv-x="778" 
d="M60 20c0 13.333 8.99902 19.999 26.999 19.999h289l58 273h-279c-18.667 0 -28 6.66699 -28 20s10 20 30 20h286l59 278l2 7c0.666992 5.33301 1.33398 8.83301 2.00098 10.5s2 4.33398 4 8.00098s4.33301 6.16699 7 7.5s5.66699 2 9 2c12 0 18 -7.33301 18 -22
c0 -2 -0.166992 -4 -0.5 -6s-0.833008 -4.16699 -1.5 -6.5s-1 -4.5 -1 -6.5l-57 -272h277c20 0 30 -6.66699 30 -20s-9.66699 -20 -29 -20h-287l-58 -273h277c16 0 26 -5 30 -15v-6c0 -12.667 -9.33301 -19 -28 -19h-608c-18.667 0 -28 6.66699 -28 20z" />
    <glyph glyph-name="twosuperior" unicode="&#xb2;" horiz-adv-x="444" 
d="M126 361l14.998 70.0029l125 66c8.66699 4 23.167 10.167 43.5 18.5s36.833 15.5 49.5 21.5s26.334 13.833 41.001 23.5s25.667 21 33 34s11 27.5 11 43.5c0 21.333 -9 38.333 -27 51s-42.333 19 -73 19c-51.333 0 -94.333 -25 -129 -75l-27 58
c28.667 27.333 56.834 47.666 84.501 60.999s60.5 20 98.5 20c48 0 86.333 -11 115 -33s43 -51 43 -87c0 -20 -3.5 -37.333 -10.5 -52s-18.167 -27.167 -33.5 -37.5s-29.333 -18.5 -42 -24.5s-30.667 -13.333 -54 -22s-40.333 -15.334 -51 -20.001
c-10 -4.66699 -53.333 -26.334 -130 -65.001h148l25 1h104l-15 -71h-344z" />
    <glyph glyph-name="threesuperior" unicode="&#xb3;" horiz-adv-x="444" 
d="M122 378l22.0039 60.999c59.333 -18 112.333 -27 159 -27c37.333 0 65.166 7.5 83.499 22.5s27.5 31.5 27.5 49.5c0 16.667 -8.33301 29.667 -25 39c-14.667 8 -36.334 12 -65.001 12h-44l13 62c40 4 68 8.5 84 13.5s30.667 15.5 44 31.5c8.66699 12 13 22.667 13 32
c0 26 -21.667 39 -65 39c-44.667 -0.666992 -91.334 -18 -140.001 -52l-22 56c59.333 36.667 118.333 55 177 55c38 0 69.833 -8.16699 95.5 -24.5s38.5 -37.833 38.5 -64.5c0 -21.333 -8 -42.666 -24 -63.999s-39.667 -39.333 -71 -54c54 -18 81 -44.333 81 -79
c0 -32 -20 -62.667 -60 -92s-90.667 -44 -152 -44c-54.667 0 -111.334 9.33301 -170.001 28z" />
    <glyph glyph-name="acute" unicode="&#xb4;" 
d="M299 510l160 130h46l33 -1l-177 -129h-62z" />
    <glyph glyph-name="uni00B5" unicode="&#xb5;" horiz-adv-x="517" 
d="M38 -195l136.001 640.001h78l-68 -319c-4 -21.333 -6 -35 -6 -41c0 -16 6 -26.667 18 -32s29.333 -8 52 -8c35.333 0 64.5 8.66699 87.5 26s38.5 35.666 46.5 54.999c1.33301 3.33301 4.66602 16.333 9.99902 39l60 280h78l-95 -445h-75l10 48
c-56 -39.333 -118.333 -59 -187 -59c-6 0 -15 0.666992 -27 2l-40 -186h-78z" />
    <glyph glyph-name="paragraph" unicode="&#xb6;" horiz-adv-x="611" 
d="M154 445c0 30 7.33301 61.1699 22 93.5029s34.834 62.166 60.501 89.499s58.667 49.833 99 67.5s83.833 26.5 130.5 26.5h235c10 0 16.833 -1 20.5 -3s6.83398 -6.33301 9.50098 -13c0.666992 -8.66699 -1.5 -14.834 -6.5 -18.501s-11.833 -5.5 -20.5 -5.5h-59l-181 -851
c-2.66699 -16.667 -10 -25 -22 -25s-18 7.33301 -18 22c0 4.66699 0.333008 8.33398 1 11.001l179 843h-69l-178 -839c0 -0.666992 -0.5 -3.33398 -1.5 -8.00098s-2 -8.16699 -3 -10.5s-2.33301 -5.16602 -4 -8.49902s-3.83398 -5.83301 -6.50098 -7.5
s-5.66699 -2.5 -9 -2.5c-12.667 0 -19 7.33301 -19 22c0 2.66699 0.666992 6.66699 2 12l85 405c-28.667 1.33301 -56.834 6.16602 -84.501 14.499s-54 20.166 -79 35.499s-45.167 36 -60.5 62s-23 55.333 -23 88z" />
    <glyph glyph-name="periodcentered" unicode="&#xb7;" horiz-adv-x="236" 
d="M110 175l19 89h89l-18 -89h-90z" />
    <glyph glyph-name="cedilla" unicode="&#xb8;" horiz-adv-x="444" 
d="M76 -192l110 169h61l-101 -169h-70z" />
    <glyph glyph-name="onesuperior" unicode="&#xb9;" horiz-adv-x="444" 
d="M160 361l12 59h110l52 245c-38.667 -17.333 -81.667 -26 -129 -26l12 58h1c78.667 0.666992 145 25.667 199 75h20l-75 -352h102l-13 -59h-291z" />
    <glyph glyph-name="ordmasculine" unicode="&#xba;" horiz-adv-x="444" 
d="M10 304c0 7.33301 2.49805 14 7.49805 20s11.167 9.33301 18.5 10c4 0.666992 10.333 1 19 1h294c20 0 32.667 -1.33301 38 -4c10.667 -6.66699 16 -15.667 16 -27c0 -20 -13 -30 -39 -30h-305c-1.33301 0 -3.16602 -0.166992 -5.49902 -0.5s-4.16602 -0.5 -5.49902 -0.5
c-14.667 0 -24.667 3.5 -30 10.5s-8 13.833 -8 20.5zM64.998 518c0 62 24.501 118.833 73.501 170.5s104.167 77.5 165.5 77.5c45.333 0 82.166 -15 110.499 -45s42.5 -68.333 42.5 -115c0 -64.667 -24.667 -121.167 -74 -169.5s-104 -72.5 -164 -72.5
c-44.667 0 -81.5 14.167 -110.5 42.5s-43.5 65.5 -43.5 111.5zM143.999 525c0 -35.333 9 -60.334 27 -75.001s38.667 -22 62 -22c44 0 79.667 19.333 107 58s41 80 41 124c0 34 -9.16699 58.333 -27.5 73s-39.166 22 -62.499 22c-44.667 0 -80.334 -18.667 -107.001 -56
s-40 -78.666 -40 -123.999z" />
    <glyph glyph-name="guillemotright" unicode="&#xbb;" horiz-adv-x="667" 
d="M100 0l257 219v1l-164 219h62l180 -220l-274 -219h-61zM266 0l257 219v1l-163 219h61l181 -220l-274 -219h-62z" />
    <glyph glyph-name="onequarter" unicode="&#xbc;" horiz-adv-x="444" 
d="M4 -109c1.33301 6 2.66504 12.667 3.99805 20s2.33301 12.5 3 15.5s1.5 6.5 2.5 10.5s1.83301 6.83301 2.5 8.5s1.33398 3.5 2.00098 5.5s1.83398 3.83301 3.50098 5.5s3 3.16699 4 4.5s2.83301 3.33301 5.5 6l235 251h97l-56 -265h99l-13 -62h-99l-19 -86h-79l18 86
h-210zM66.999 277c0 14 9.33203 21 27.999 21h374c7.33301 0 13 -1.83301 17 -5.5s6.16699 -6 6.5 -7s0.833008 -3.83301 1.5 -8.5c-1.33301 -12.667 -10.666 -19 -27.999 -19h-373c-17.333 0 -26 6.33301 -26 19zM99.998 -47l133 -0.00292969l48 227
c-2.66699 -6.66699 -5.5 -13.167 -8.5 -19.5s-7 -13.166 -12 -20.499s-9.16699 -13.666 -12.5 -18.999s-9 -12.666 -17 -21.999l-18 -21.5c-4 -5 -11.667 -13.667 -23 -26l-25.5 -28l-30.5 -33.5zM153.998 337.997l13 58h109l1 1l61 289
c-38.667 -9.33301 -80.667 -14 -126 -14l12 59c80 0 144 13.667 192 41h20l-80 -376h103l-13 -58h-292z" />
    <glyph glyph-name="onehalf" unicode="&#xbd;" horiz-adv-x="444" 
d="M8 -195l12.001 59.0029c96.667 61.333 158.667 99.333 186 114c0.666992 0 5 2.16699 13 6.5s15 8.5 21 12.5l24 15.5c10 6.33301 18.667 13.166 26 20.499s14.5 15.333 21.5 24s12.5 18 16.5 28s6 20.333 6 31c0 19.333 -9.16699 35 -27.5 47s-42.833 18 -73.5 18
c-48.667 0 -91 -22.333 -127 -67c-1.33301 -2 -2.33301 -3.33301 -3 -4l-26 58c30 25.333 58.5 43.666 85.5 54.999s58.833 17 95.5 17c42.667 0 80 -9 112 -27s48 -46.667 48 -86c0 -19.333 -4 -37 -12 -53s-19.833 -30 -35.5 -42s-30.667 -22.167 -45 -30.5
s-32.333 -17.833 -54 -28.5s-37.834 -19.334 -48.501 -26.001l-128 -77h271l-14 -65h-344zM67.001 277.003c0 14 9.33203 21 27.999 21h374c7.33301 0 13 -1.83301 17 -5.5s6.16699 -6 6.5 -7s0.833008 -3.83301 1.5 -8.5c-1.33301 -12.667 -10.666 -19 -27.999 -19h-373
c-17.333 0 -26 6.33301 -26 19zM154 338.003l13 58h109l1 1l61 289c-38.667 -9.33301 -80.667 -14 -126 -14l12 59c80 0 144 13.667 192 41h20l-80 -376h102l-12 -58h-292z" />
    <glyph glyph-name="threequarters" unicode="&#xbe;" horiz-adv-x="444" 
d="M4 -109c1.33301 6 2.66504 12.667 3.99805 20s2.33301 12.5 3 15.5s1.5 6.5 2.5 10.5s1.83301 6.83301 2.5 8.5s1.33398 3.5 2.00098 5.5s1.83398 3.83301 3.50098 5.5s3 3.16699 4 4.5s2.83301 3.33301 5.5 6l235 251h97l-56 -265h99l-13 -62h-99l-19 -86h-79l18 86
h-210zM66.999 277c0 14 9.33203 21 27.999 21h374c16.667 -0.666992 25 -7.66699 25 -21c-1.33301 -12.667 -10.666 -19 -27.999 -19h-373c-17.333 0 -26 6.33301 -26 19zM99.998 -47l133 -0.00292969l48 227c-2.66699 -6.66699 -5.5 -13.167 -8.5 -19.5
s-7 -13.166 -12 -20.499s-9.16699 -13.666 -12.5 -18.999s-9 -12.666 -17 -21.999l-18 -21.5c-4 -5 -11.667 -13.667 -23 -26l-25.5 -28l-30.5 -33.5zM113.998 339.997l21.999 62.0039c58.667 -16.667 112.334 -25 161.001 -25c36.667 0 64.5 9 83.5 27s28.5 37 28.5 57
s-8.66699 35.333 -26 46c-14 8.66699 -35.333 13 -64 13h-43l13 60v1c1.33301 0 6.16602 0.333008 14.499 1s14 1.16699 17 1.5s8.33301 1 16 2s13.667 2.16699 18 3.5s9.83301 3.16602 16.5 5.49902s12.334 5.16602 17.001 8.49902s9.66699 7.16602 15 11.499
s10 9.5 14 15.5c10.667 14.667 16 28 16 40c0 11.333 -4.66699 21.333 -14 30s-25.333 13 -48 13c-46 0 -93.333 -16.333 -142 -49l-21 56c56.667 34.667 115 52 175 52c39.333 0 71.333 -9 96 -27s37 -40.333 37 -67c0 -50.667 -33.333 -93.334 -100 -128.001
c54.667 -18.667 82 -47.667 82 -87c0 -34 -20.167 -67.167 -60.5 -99.5s-91.833 -48.5 -154.5 -48.5c-54.667 0 -111 8.33301 -169 25z" />
    <glyph glyph-name="questiondown" unicode="&#xbf;" horiz-adv-x="472" 
d="M41 -89c0 14 1.33301 27.833 4 41.5s6 25.834 10 36.501s8.66699 21 14 31s10.833 18.5 16.5 25.5s11.334 13.5 17.001 19.5s10.5 10.833 14.5 14.5s7.66699 6.83398 11 9.50098l5 4c14.667 13.333 27.834 27 39.501 41s21.667 28.5 30 43.5l21.5 39.5
c6 11.333 11.333 24.833 16 40.5s8 27.334 10 35.001s4.5 19 7.5 34s4.83301 23.833 5.5 26.5h67c0 -0.666992 -2 -10.334 -6 -29.001s-7.33301 -32.834 -10 -42.501s-7.83398 -25.5 -15.501 -47.5s-15.834 -41.167 -24.501 -57.5s-20.5 -35.333 -35.5 -57
s-31.5 -42.167 -49.5 -61.5c-0.666992 -0.666992 -3 -2.83398 -7 -6.50098l-11.5 -11c-3.66699 -3.66699 -8.16699 -8.5 -13.5 -14.5s-10 -12.667 -14 -20s-8 -15.5 -12 -24.5s-7 -19 -9 -30s-3 -22.5 -3 -34.5c0 -40.667 24.667 -61 74 -61c56 0 116.667 19.333 182 58
l9 -64c-68.667 -36.667 -136.667 -55 -204 -55c-92.667 0 -139 38.667 -139 116zM274 444l18 84h83l-17 -84h-84z" />
    <glyph glyph-name="Agrave" unicode="&#xc0;" horiz-adv-x="667" 
d="M27 0l408 694h89l113 -694h-92l-33 204h-290l-120 -204h-75zM254 260l249 -0.000976562c-31.333 200.667 -47 318.334 -47 353.001v11c-10 -22.667 -25.5 -53.167 -46.5 -91.5l-90 -158.5c-39 -67.333 -60.833 -105.333 -65.5 -114zM371 849.999l111 -0.000976562
l137 -90h-75c-7.33301 0 -18.5 3.83301 -33.5 11.5s-61.5 33.834 -139.5 78.501z" />
    <glyph glyph-name="Aacute" unicode="&#xc1;" horiz-adv-x="667" 
d="M27 0l408 694h89l113 -694h-92l-33 204h-290l-120 -204h-75zM254 260l249 -0.000976562c-31.333 200.667 -47 318.334 -47 353.001v11c-10 -22.667 -25.5 -53.167 -46.5 -91.5l-90 -158.5c-39 -67.333 -60.833 -105.333 -65.5 -114zM368 759.999l106 55
c34 17.333 54.5 27.5 61.5 30.5s13.833 4.5 20.5 4.5h99l-175 -79l-25 -10l-15 -1h-72z" />
    <glyph glyph-name="Acircumflex" unicode="&#xc2;" horiz-adv-x="667" 
d="M324 727l162 173h76l73 -173h-61l-68 122l-120 -122h-62zM27 0l408 694h89l113 -694h-92l-33 204h-290l-120 -204h-75zM254 260l249 -0.000976562c-31.333 200.667 -47 318.334 -47 353.001v11c-10 -22.667 -25.5 -53.167 -46.5 -91.5l-90 -158.5
c-39 -67.333 -60.833 -105.333 -65.5 -114z" />
    <glyph glyph-name="Atilde" unicode="&#xc3;" horiz-adv-x="667" 
d="M27 0l408 694h89l113 -694h-92l-33 204h-290l-120 -204h-75zM254 260l249 -0.000976562c-31.333 200.667 -47 318.334 -47 353.001v11c-10 -22.667 -25.5 -53.167 -46.5 -91.5l-90 -158.5c-39 -67.333 -60.833 -105.333 -65.5 -114zM320 726.999
c11.333 50.667 29.168 90.166 53.501 118.499s50.166 42.5 77.499 42.5c14.667 0 27.167 -5.16699 37.5 -15.5s18 -21.666 23 -33.999s12.333 -23.666 22 -33.999s21.167 -15.5 34.5 -15.5c16 0 28.167 8.83301 36.5 26.5s15.5 42.167 21.5 73.5h61
c-9.33301 -49.333 -26.666 -88.666 -51.999 -117.999s-51.666 -44 -78.999 -44c-14.667 0 -27 5.16699 -37 15.5s-17.5 21.833 -22.5 34.5s-12.333 24.167 -22 34.5s-21.167 15.5 -34.5 15.5c-5.33301 0 -10.5 -1.33301 -15.5 -4s-9.33301 -6.83398 -13 -12.501
s-6.83398 -10.834 -9.50098 -15.501s-5.33398 -11.167 -8.00098 -19.5s-4.5 -14.5 -5.5 -18.5l-4.5 -18l-2 -12h-62z" />
    <glyph glyph-name="Adieresis" unicode="&#xc4;" horiz-adv-x="667" 
d="M352 760l19 89h89l-18 -89h-90zM546 760l19 89h89l-18 -89h-90zM27 0l408 694h89l113 -694h-92l-33 204h-290l-120 -204h-75zM254 260l249 -0.000976562c-31.333 200.667 -47 318.334 -47 353.001v11c-10 -22.667 -25.5 -53.167 -46.5 -91.5l-90 -158.5
c-39 -67.333 -60.833 -105.333 -65.5 -114z" />
    <glyph glyph-name="Aring" unicode="&#xc5;" horiz-adv-x="667" 
d="M27 0l382.001 650c-24 20 -36 46.667 -36 80c0 40.667 14.667 77.167 44 109.5s61.666 48.5 96.999 48.5c26 0 47 -9.16699 63 -27.5s24 -41.5 24 -69.5c0 -26 -6.5 -51 -19.5 -75s-30.167 -43.667 -51.5 -59l107 -657h-92l-33 204h-290l-120 -204h-75zM254.001 260
l249 -0.000976562c-31.333 200.667 -47 318.334 -47 353.001v11c-10 -22.667 -25.5 -53.167 -46.5 -91.5l-90 -158.5c-39 -67.333 -60.833 -105.333 -65.5 -114zM429.001 740.999c0 -31.333 14.665 -47 43.998 -47c24.667 0 42.834 10.167 54.501 30.5
s17.5 39.833 17.5 58.5c0 29.333 -14.333 44 -43 44h-1c-15.333 0 -30.666 -6 -45.999 -18c-17.333 -22 -26 -44.667 -26 -68z" />
    <glyph glyph-name="AE" unicode="&#xc6;" horiz-adv-x="861" 
d="M27 0l432 694h493l-14 -66h-48l-23 1h-203l-24 1l-50 -238h270l-13 -62h-270l-55 -260h65l24 1h163l21 1h38l-15 -72h-400l48 222h-226l-138 -222h-75zM275 278h202l75 352h-58z" />
    <glyph glyph-name="Ccedilla" unicode="&#xc7;" horiz-adv-x="639" 
d="M130 259c0 56 11.5 111.832 34.5 167.499s53.167 104.667 90.5 147s81.666 76.666 132.999 102.999s103.666 39.5 156.999 39.5c60.667 0 119.667 -11.333 177 -34l-32 -83c-24.667 18 -48.667 31.333 -72 40s-52.666 13 -87.999 13c-36 0 -72.333 -9.83301 -109 -29.5
s-70 -46.167 -100 -79.5s-54.333 -74.666 -73 -123.999s-28 -101.666 -28 -156.999c0 -60 15.667 -111.667 47 -155s76.333 -65 135 -65c31.333 0 59.333 3 84 9s42.834 11.833 54.501 17.5s32.834 17.167 63.501 34.5l-9 -70c-41.333 -21.333 -75.333 -35.833 -102 -43.5
s-61.334 -11.5 -104.001 -11.5c-81.333 0 -144.833 27 -190.5 81s-68.5 120.667 -68.5 200zM243 -192.001l110 169h61l-101 -169h-70z" />
    <glyph glyph-name="Egrave" unicode="&#xc8;" horiz-adv-x="597" 
d="M94 0l147 691h447l-14 -66h-57l-25 1h-240l-35 1l-51 -237h330l-12 -61h-330l-1 -1l-54 -258h85l24 1h194l22 1h46l-15 -72h-461zM323 850l111 -0.000976562l137 -90h-75c-7.33301 0 -18.5 3.83301 -33.5 11.5s-61.5 33.834 -139.5 78.501z" />
    <glyph glyph-name="Eacute" unicode="&#xc9;" horiz-adv-x="597" 
d="M94 0l147 691h447l-14 -66h-57l-25 1h-240l-35 1l-51 -237h330l-12 -61h-330l-1 -1l-54 -258h85l24 1h194l22 1h46l-15 -72h-461zM362 760l106 55c34 17.333 54.5 27.5 61.5 30.5s13.833 4.5 20.5 4.5h99l-175 -79l-25 -10l-15 -1h-72z" />
    <glyph glyph-name="Ecircumflex" unicode="&#xca;" horiz-adv-x="597" 
d="M94 0l147 691h447l-14 -66h-57l-25 1h-240l-35 1l-51 -237h330l-12 -61h-330l-1 -1l-54 -258h85l24 1h194l22 1h46l-15 -72h-461zM284 727l161 173h62l88 -173h-61l-69 122l-120 -122h-61z" />
    <glyph glyph-name="Edieresis" unicode="&#xcb;" horiz-adv-x="597" 
d="M304 760l19 89h89l-18 -89h-90zM499 761l19 89h89l-18 -89h-90zM94 0l147 691h447l-14 -66h-57l-25 1h-240l-35 1l-51 -237h330l-12 -61h-330l-1 -1l-54 -258h85l24 1h194l22 1h46l-15 -72h-461z" />
    <glyph glyph-name="Igrave" unicode="&#xcc;" horiz-adv-x="278" 
d="M94 0l147 694h90l-147 -694h-90zM164 850l111 0.000976562l137 -90h-76c-8 0 -19.833 4.16699 -35.5 12.5s-61.167 34.166 -136.5 77.499z" />
    <glyph glyph-name="Iacute" unicode="&#xcd;" horiz-adv-x="278" 
d="M94 0l147 694h90l-147 -694h-90zM216 760c112 58 170.334 87.667 175.001 89c3.33301 0.666992 7.66602 1 12.999 1h99l-175 -79l-25 -10l-15 -1h-72z" />
    <glyph glyph-name="Icircumflex" unicode="&#xce;" horiz-adv-x="278" 
d="M94 0l147 694h90l-147 -694h-90zM138 727l161 173h62l88 -173h-62l-68 122l-120 -122h-61z" />
    <glyph glyph-name="Idieresis" unicode="&#xcf;" horiz-adv-x="278" 
d="M158 760l19 89h89l-18 -89h-90zM352 760l19 89h89l-18 -89h-90zM94 0l147 694h90l-147 -694h-90z" />
    <glyph glyph-name="Eth" unicode="&#xd0;" horiz-adv-x="722" 
d="M66 311l12 58.999h96l68 324h251c39.333 0 74.333 -6 105 -18s55.167 -27.167 73.5 -45.5s33.5 -39.833 45.5 -64.5s20.167 -48.5 24.5 -71.5s6.5 -46.167 6.5 -69.5c0 -103.333 -35.5 -196.666 -106.5 -279.999s-152.5 -131 -244.5 -143c-12 -1.33301 -30.333 -2 -55 -2
h-247l66 311h-95zM194 55.999l153 -0.000976562c86 0 159.833 37 221.5 111s92.5 160.667 92.5 260c0 24.667 -3 48.334 -9 71.001s-16 45 -30 67s-34.5 39.667 -61.5 53s-59.5 20 -97.5 20h-145l-57 -268h178l-12 -59h-179z" />
    <glyph glyph-name="Ntilde" unicode="&#xd1;" horiz-adv-x="708" 
d="M95 0l147 694h126l168 -577l12 -47l132 624h78l-147 -694h-125l-133 452c-22.667 76 -38.667 133.333 -48 172l-132 -624h-78zM341 727c11.333 50.667 29.002 90.165 53.002 118.498s49.667 42.5 77 42.5c14.667 0 27.167 -5.16699 37.5 -15.5s18 -21.666 23 -33.999
s12.333 -23.666 22 -33.999s21.167 -15.5 34.5 -15.5c27.333 0 47 33.333 59 100h61c-8.66699 -44 -24.834 -82 -48.501 -114s-50.834 -48 -81.501 -48c-14.667 0 -27.167 5.16699 -37.5 15.5s-18 21.833 -23 34.5s-12.333 24.167 -22 34.5s-21.167 15.5 -34.5 15.5
c-16 0 -28.167 -8.66699 -36.5 -26s-15.833 -42 -22.5 -74h-61z" />
    <glyph glyph-name="Ograve" unicode="&#xd2;" horiz-adv-x="736" 
d="M119 255c0 76.667 19.333 150.831 58 222.498s89 129.334 151 173.001s126 65.5 192 65.5c72 0 130.5 -26.333 175.5 -79s67.5 -119.667 67.5 -201c0 -78 -19.5 -152.667 -58.5 -224s-89.5 -128.166 -151.5 -170.499s-125.333 -63.5 -190 -63.5
c-72 0 -130.667 26.167 -176 78.5s-68 118.5 -68 198.5zM211 261.997c0 -66 15.167 -119.002 45.5 -159.002s70.5 -60 120.5 -60c51.333 0 100.5 20.833 147.5 62.5s84 93.334 111 155.001s40.5 122.5 40.5 182.5c0 64 -16 114.833 -48 152.5s-72.667 56.5 -122 56.5
c-74.667 0 -142.5 -38.667 -203.5 -116s-91.5 -168.666 -91.5 -273.999zM406 849.995l112 -0.000976562l136 -90h-75c-7.33301 0 -18.5 3.83301 -33.5 11.5s-61.5 33.834 -139.5 78.501z" />
    <glyph glyph-name="Oacute" unicode="&#xd3;" horiz-adv-x="736" 
d="M119 255c0 76.667 19.333 150.831 58 222.498s89 129.334 151 173.001s126 65.5 192 65.5c72 0 130.5 -26.333 175.5 -79s67.5 -119.667 67.5 -201c0 -78 -19.5 -152.667 -58.5 -224s-89.5 -128.166 -151.5 -170.499s-125.333 -63.5 -190 -63.5
c-72 0 -130.667 26.167 -176 78.5s-68 118.5 -68 198.5zM211 261.997c0 -66 15.167 -119.002 45.5 -159.002s70.5 -60 120.5 -60c51.333 0 100.5 20.833 147.5 62.5s84 93.334 111 155.001s40.5 122.5 40.5 182.5c0 64 -16 114.833 -48 152.5s-72.667 56.5 -122 56.5
c-74.667 0 -142.5 -38.667 -203.5 -116s-91.5 -168.666 -91.5 -273.999zM404 759.995l106 55c34 17.333 54.5 27.5 61.5 30.5s13.833 4.5 20.5 4.5h98l-175 -79l-24 -10l-15 -1h-72z" />
    <glyph glyph-name="Ocircumflex" unicode="&#xd4;" horiz-adv-x="736" 
d="M119 255c0 76.667 19.333 150.831 58 222.498s89 129.334 151 173.001s126 65.5 192 65.5c72 0 130.5 -26.333 175.5 -79s67.5 -119.667 67.5 -201c0 -78 -19.5 -152.667 -58.5 -224s-89.5 -128.166 -151.5 -170.499s-125.333 -63.5 -190 -63.5
c-72 0 -130.667 26.167 -176 78.5s-68 118.5 -68 198.5zM211 261.997c0 -66 15.167 -119.002 45.5 -159.002s70.5 -60 120.5 -60c51.333 0 100.5 20.833 147.5 62.5s84 93.334 111 155.001s40.5 122.5 40.5 182.5c0 64 -16 114.833 -48 152.5s-72.667 56.5 -122 56.5
c-74.667 0 -142.5 -38.667 -203.5 -116s-91.5 -168.666 -91.5 -273.999zM367 726.995l161 173h62l88 -173h-61l-68 122l-121 -122h-61z" />
    <glyph glyph-name="Otilde" unicode="&#xd5;" horiz-adv-x="736" 
d="M119 255c0 76.667 19.333 150.831 58 222.498s89 129.334 151 173.001s126 65.5 192 65.5c72 0 130.5 -26.333 175.5 -79s67.5 -119.667 67.5 -201c0 -78 -19.5 -152.667 -58.5 -224s-89.5 -128.166 -151.5 -170.499s-125.333 -63.5 -190 -63.5
c-72 0 -130.667 26.167 -176 78.5s-68 118.5 -68 198.5zM211 261.997c0 -66 15.167 -119.002 45.5 -159.002s70.5 -60 120.5 -60c51.333 0 100.5 20.833 147.5 62.5s84 93.334 111 155.001s40.5 122.5 40.5 182.5c0 64 -16 114.833 -48 152.5s-72.667 56.5 -122 56.5
c-74.667 0 -142.5 -38.667 -203.5 -116s-91.5 -168.666 -91.5 -273.999zM355 726.995c8.66699 34 19.3311 62.833 31.998 86.5s25.5 40.5 38.5 50.5s24 16.667 33 20s17.833 5 26.5 5c14.667 0 27.334 -5.16699 38.001 -15.5s18.5 -21.833 23.5 -34.5
s12.333 -24.167 22 -34.5s21.167 -15.5 34.5 -15.5c8.66699 0 16.5 2.83301 23.5 8.5s12.833 15 17.5 28s8 22.833 10 29.5s4.66699 18 8 34h61c-11.333 -52 -29.333 -92 -54 -120s-50.334 -42 -77.001 -42c-14 0 -26.167 5.16699 -36.5 15.5s-18.166 21.833 -23.499 34.5
s-12.833 24.167 -22.5 34.5s-21.167 15.5 -34.5 15.5c-10.667 0 -20.167 -5.16699 -28.5 -15.5s-14.166 -21.5 -17.499 -33.5s-6.33301 -23.333 -9 -34l-3 -17h-62z" />
    <glyph glyph-name="Odieresis" unicode="&#xd6;" horiz-adv-x="736" 
d="M387 759l19 89h89l-18 -89h-90zM582 760l19 89h89l-18 -89h-90zM119 255c0 76.667 19.333 150.831 58 222.498s89 129.334 151 173.001s126 65.5 192 65.5c72 0 130.5 -26.333 175.5 -79s67.5 -119.667 67.5 -201c0 -78 -19.5 -152.667 -58.5 -224
s-89.5 -128.166 -151.5 -170.499s-125.333 -63.5 -190 -63.5c-72 0 -130.667 26.167 -176 78.5s-68 118.5 -68 198.5zM211 261.997c0 -66 15.167 -119.002 45.5 -159.002s70.5 -60 120.5 -60c51.333 0 100.5 20.833 147.5 62.5s84 93.334 111 155.001s40.5 122.5 40.5 182.5
c0 64 -16 114.833 -48 152.5s-72.667 56.5 -122 56.5c-74.667 0 -142.5 -38.667 -203.5 -116s-91.5 -168.666 -91.5 -273.999z" />
    <glyph glyph-name="multiply" unicode="&#xd7;" horiz-adv-x="778" 
d="M154 29c0 2.66699 0.329102 4.83203 0.996094 6.49902s1.83398 3.5 3.50098 5.5s3 3.66699 4 5s3.5 3.5 7.5 6.5s6.66699 5.16699 8 6.5l236 194c-105.333 134 -159.666 203.667 -162.999 209c-2 4 -3 7.66699 -3 11c0 4.66699 2.16699 8.83398 6.5 12.501
s8.5 5.5 12.5 5.5h2c4.66699 0 11.834 -5.5 21.501 -16.5s35.167 -43.167 76.5 -96.5l77 -99h1l235 194c14 12 24.333 18 31 18c4.66699 0 8.83398 -1.83301 12.501 -5.5s5.5 -8.16699 5.5 -13.5c0 -8 -8 -18.333 -24 -31l-236 -194l157 -199c6 -9.33301 9 -16.333 9 -21
c0 -6 -2.16699 -10.5 -6.5 -13.5s-8.16602 -4.5 -11.499 -4.5h-2c-5.33301 0 -11.5 4 -18.5 12s-34.833 43.333 -83.5 106l-74 94h-1l-234 -193c-16 -12.667 -26.667 -19 -32 -19c-4.66699 0 -8.83398 2 -12.501 6s-5.5 8.66699 -5.5 14z" />
    <glyph glyph-name="Oslash" unicode="&#xd8;" horiz-adv-x="778" 
d="M119 260c0 76 20.1689 149.5 60.502 220.5s93.166 128 158.499 171s132.666 64.5 201.999 64.5c22.667 0 44.167 -2.66699 64.5 -8s34.666 -10 42.999 -14s20.5 -10.333 36.5 -19l66 84h1l48 -32l-70 -90c50 -52.667 75 -121.667 75 -207
c0 -58 -12.167 -114.833 -36.5 -170.5s-56 -104 -95 -145s-84.167 -74 -135.5 -99s-102.666 -37.5 -153.999 -37.5c-54 0 -101.667 13.667 -143 41h-1l-65 -84l-50 32l70 89c-50 52 -75 120 -75 204zM204.002 257c0 -48.667 12.999 -95.333 38.999 -140l396 501v1
c-33.333 24 -70.666 36 -111.999 36c-85.333 0 -160.5 -40.667 -225.5 -122s-97.5 -173.333 -97.5 -276zM284.001 75.001c12.667 -8 22 -13.667 28 -17s17 -7.33301 33 -12s33 -7 51 -7c86.667 0 162.167 40.333 226.5 121s96.5 172 96.5 274c0 50 -13 97.333 -39 142z" />
    <glyph glyph-name="Ugrave" unicode="&#xd9;" horiz-adv-x="687" 
d="M137 179c0 20 8.33301 68.332 25 144.999l79 370h89l-87 -411c-11.333 -52.667 -17 -89.667 -17 -111c0 -42 11.667 -75.5 35 -100.5s54 -37.5 92 -37.5c42 0 82 15 120 45s65.333 71 82 123c5.33301 18.667 10.333 39 15 61l91 431h78l-92 -434
c-4.66699 -23.333 -9 -41.833 -13 -55.5s-12.833 -33.167 -26.5 -58.5s-30.834 -48.666 -51.501 -69.999c-63.333 -65.333 -135 -98 -215 -98c-59.333 0.666992 -108.166 19.5 -146.499 56.5s-57.5 85.167 -57.5 144.5zM382 849.999l111 -0.000976562l137 -90h-75
c-7.33301 0 -18.5 3.83301 -33.5 11.5s-61.5 33.834 -139.5 78.501z" />
    <glyph glyph-name="Uacute" unicode="&#xda;" horiz-adv-x="687" 
d="M137 179c0 20 8.33301 68.332 25 144.999l79 370h89l-87 -411c-11.333 -52.667 -17 -89.667 -17 -111c0 -42 11.667 -75.5 35 -100.5s54 -37.5 92 -37.5c42 0 82 15 120 45s65.333 71 82 123c5.33301 18.667 10.333 39 15 61l91 431h78l-92 -434
c-4.66699 -23.333 -9 -41.833 -13 -55.5s-12.833 -33.167 -26.5 -58.5s-30.834 -48.666 -51.501 -69.999c-63.333 -65.333 -135 -98 -215 -98c-59.333 0.666992 -108.166 19.5 -146.499 56.5s-57.5 85.167 -57.5 144.5zM420 759.999c112.667 58 171.334 87.667 176.001 89
c3.33301 0.666992 7.66602 1 12.999 1h98l-175 -79l-25 -10l-15 -1h-72z" />
    <glyph glyph-name="Ucircumflex" unicode="&#xdb;" horiz-adv-x="687" 
d="M137 179c0 20 8.33301 68.332 25 144.999l79 370h89l-87 -411c-11.333 -52.667 -17 -89.667 -17 -111c0 -42 11.667 -75.5 35 -100.5s54 -37.5 92 -37.5c42 0 82 15 120 45s65.333 71 82 123c5.33301 18.667 10.333 39 15 61l91 431h78l-92 -434
c-4.66699 -23.333 -9 -41.833 -13 -55.5s-12.833 -33.167 -26.5 -58.5s-30.834 -48.666 -51.501 -69.999c-63.333 -65.333 -135 -98 -215 -98c-59.333 0.666992 -108.166 19.5 -146.499 56.5s-57.5 85.167 -57.5 144.5zM344 726.999l162 173h56l94 -173h-62l-68 122
l-120 -122h-62z" />
    <glyph glyph-name="Udieresis" unicode="&#xdc;" horiz-adv-x="687" 
d="M362 760l19 89h89l-18 -89h-90zM557 760l19 89h89l-18 -89h-90zM137 179c0 20 8.33301 68.332 25 144.999l79 370h89l-87 -411c-11.333 -52.667 -17 -89.667 -17 -111c0 -42 11.667 -75.5 35 -100.5s54 -37.5 92 -37.5c42 0 82 15 120 45s65.333 71 82 123
c5.33301 18.667 10.333 39 15 61l91 431h78l-92 -434c-4.66699 -23.333 -9 -41.833 -13 -55.5s-12.833 -33.167 -26.5 -58.5s-30.834 -48.666 -51.501 -69.999c-63.333 -65.333 -135 -98 -215 -98c-59.333 0.666992 -108.166 19.5 -146.499 56.5s-57.5 85.167 -57.5 144.5z
" />
    <glyph glyph-name="Yacute" unicode="&#xdd;" horiz-adv-x="667" 
d="M150 694l105.001 -0.000976562l108 -228c31.333 -67.333 48.666 -106.666 51.999 -117.999l53 62l254 284h88l-359 -399c-10.667 -11.333 -17 -22 -19 -32l-56 -263h-87l56 264c1.33301 6.66699 2 10.334 2 11.001c0 3.33301 -2.33301 9.66602 -7 18.999z
M410.001 759.999l106 55c34 17.333 54.5 27.5 61.5 30.5s13.833 4.5 20.5 4.5h99l-175 -79l-25 -10l-15 -1h-72z" />
    <glyph glyph-name="Thorn" unicode="&#xde;" horiz-adv-x="583" 
d="M96 0l147.002 694.001h84l-26 -127h124c29.333 0 55.5 -3.83301 78.5 -11.5s41 -17 54 -28s23.667 -23.833 32 -38.5s13.833 -28.334 16.5 -41.001s4 -25.334 4 -38.001c0 -55.333 -21.833 -104.666 -65.5 -147.999s-92.834 -69.333 -147.501 -78
c-16.667 -2.66699 -35.334 -4 -56.001 -4h-123l-38 -180h-84zM231.002 236.001l99.001 0.000976562c61.333 0 109.5 17.833 144.5 53.5s52.5 71.5 52.5 107.5c0 29.333 -11.833 55.666 -35.5 78.999s-63.834 35 -120.501 35h-82z" />
    <glyph glyph-name="germandbls" unicode="&#xdf;" horiz-adv-x="480" 
d="M81 0l115.001 540.999c8.66699 44.667 20 78.334 34 101.001c36 60.667 95.333 91 178 91c43.333 0 78 -9.5 104 -28.5s39 -48.5 39 -88.5c0 -14.667 -2.33301 -32 -7 -52s-11.667 -41.333 -21 -64s-23.333 -43 -42 -61s-40 -29.667 -64 -35
c-20.667 -3.33301 -33.334 -6.66602 -38.001 -9.99902c-10 -7.33301 -18.667 -28.333 -26 -63c-2.66699 -11.333 -4 -21.666 -4 -30.999c0 -12 3.16699 -19.667 9.5 -23s17 -6 32 -8s28.167 -6.66699 39.5 -14c31.333 -20 47 -51 47 -93c0 -24.667 -5 -49.5 -15 -74.5
s-27.833 -47.667 -53.5 -68s-56.5 -30.5 -92.5 -30.5c-36.667 0 -69 15 -97 45l27 68c18 -33.333 45.333 -50 82 -50c26 0 45 10 57 30s18 39 18 57c0 10 -1.33301 18.5 -4 25.5s-7 12.333 -13 16s-11 6.33398 -15 8.00098s-9.66699 3.16699 -17 4.5
s-11.666 2.33301 -12.999 3c-42 10.667 -63 42.334 -63 95.001c0 19.333 3.16699 40.166 9.5 62.499s19.5 44.666 39.5 66.999s44.667 35.5 74 39.5c15.333 2 25.666 5.33301 30.999 10c12 12 23.333 44.333 34 97c4 17.333 6 30.666 6 39.999c0 43.333 -26 65 -78 65
c-22 0 -40.833 -3.83301 -56.5 -11.5s-27.5 -18.334 -35.5 -32.001s-13.667 -25 -17 -34s-6.33301 -19.833 -9 -32.5l-120 -562h-75z" />
    <glyph glyph-name="agrave" unicode="&#xe0;" horiz-adv-x="480" 
d="M288 640h78l106 -130h-62zM65 85c0 56.667 35.001 98.668 105.001 126.001c56.667 22.667 124.667 34 204 34c8.66699 42.667 13 68.667 13 78c0 19.333 -5.16699 37.166 -15.5 53.499s-27.833 24.5 -52.5 24.5c-8.66699 0 -17 -0.333008 -25 -1
s-15.833 -1.83398 -23.5 -3.50098l-20.5 -4.5c-6 -1.33301 -12.667 -3.5 -20 -6.5s-13 -5.16699 -17 -6.5s-9.66699 -3.83301 -17 -7.5s-11.833 -6 -13.5 -7l-13.5 -8c-7.33301 -4.33301 -11.333 -6.5 -12 -6.5l8 67c56 29.333 111.333 44 166 44
c45.333 0 79.166 -13.167 101.499 -39.5s33.5 -56.833 33.5 -91.5c0 -6 -2.66699 -24.333 -8 -55l-58 -275h-76l7 35c-53.333 -30.667 -112.333 -46 -177 -46c-32 0 -54.833 9.83301 -68.5 29.5s-20.5 41.834 -20.5 66.501zM140.001 104.001
c0 -14.667 7.16699 -27.1689 21.5 -37.502s33.5 -15.5 57.5 -15.5c30 0 56.5 5.66699 79.5 17s38.167 26.333 45.5 45c2.66699 7.33301 8.66699 34 18 80c-65.333 -1.33301 -119 -9.66602 -161 -24.999c-40.667 -15.333 -61 -36.666 -61 -63.999z" />
    <glyph glyph-name="aacute" unicode="&#xe1;" horiz-adv-x="480" 
d="M244 510l160 130h46l33 -1l-177 -129h-62zM65 85c0 56.667 35.001 98.668 105.001 126.001c56.667 22.667 124.667 34 204 34c8.66699 42.667 13 68.667 13 78c0 19.333 -5.16699 37.166 -15.5 53.499s-27.833 24.5 -52.5 24.5c-8.66699 0 -17 -0.333008 -25 -1
s-15.833 -1.83398 -23.5 -3.50098l-20.5 -4.5c-6 -1.33301 -12.667 -3.5 -20 -6.5s-13 -5.16699 -17 -6.5s-9.66699 -3.83301 -17 -7.5s-11.833 -6 -13.5 -7l-13.5 -8c-7.33301 -4.33301 -11.333 -6.5 -12 -6.5l8 67c56 29.333 111.333 44 166 44
c45.333 0 79.166 -13.167 101.499 -39.5s33.5 -56.833 33.5 -91.5c0 -6 -2.66699 -24.333 -8 -55l-58 -275h-76l7 35c-53.333 -30.667 -112.333 -46 -177 -46c-32 0 -54.833 9.83301 -68.5 29.5s-20.5 41.834 -20.5 66.501zM140.001 104.001
c0 -14.667 7.16699 -27.1689 21.5 -37.502s33.5 -15.5 57.5 -15.5c30 0 56.5 5.66699 79.5 17s38.167 26.333 45.5 45c2.66699 7.33301 8.66699 34 18 80c-65.333 -1.33301 -119 -9.66602 -161 -24.999c-40.667 -15.333 -61 -36.666 -61 -63.999z" />
    <glyph glyph-name="acircumflex" unicode="&#xe2;" horiz-adv-x="480" 
d="M65 85c0 56.667 35.001 98.668 105.001 126.001c56.667 22.667 124.667 34 204 34c8.66699 42.667 13 68.667 13 78c0 19.333 -5.16699 37.166 -15.5 53.499s-27.833 24.5 -52.5 24.5c-8.66699 0 -17 -0.333008 -25 -1s-15.833 -1.83398 -23.5 -3.50098l-20.5 -4.5
c-6 -1.33301 -12.667 -3.5 -20 -6.5s-13 -5.16699 -17 -6.5s-9.66699 -3.83301 -17 -7.5s-11.833 -6 -13.5 -7l-13.5 -8c-7.33301 -4.33301 -11.333 -6.5 -12 -6.5l8 67c56 29.333 111.333 44 166 44c45.333 0 79.166 -13.167 101.499 -39.5s33.5 -56.833 33.5 -91.5
c0 -6 -2.66699 -24.333 -8 -55l-58 -275h-76l7 35c-53.333 -30.667 -112.333 -46 -177 -46c-32 0 -54.833 9.83301 -68.5 29.5s-20.5 41.834 -20.5 66.501zM140.001 104.001c0 -14.667 7.16699 -27.1689 21.5 -37.502s33.5 -15.5 57.5 -15.5c30 0 56.5 5.66699 79.5 17
s38.167 26.333 45.5 45c2.66699 7.33301 8.66699 34 18 80c-65.333 -1.33301 -119 -9.66602 -161 -24.999c-40.667 -15.333 -61 -36.666 -61 -63.999zM191.001 509.999l82.999 76c34.667 32 55.5 50.667 62.5 56s14.5 8 22.5 8h71l72 -141h-61l-74 99l-64 -56
c-24.667 -21.333 -39.667 -33.833 -45 -37.5s-11.666 -5.5 -18.999 -5.5h-9z" />
    <glyph glyph-name="atilde" unicode="&#xe3;" horiz-adv-x="480" 
d="M195 529c8 33.333 23.834 59.998 47.501 79.998s48.167 30 73.5 30c17.333 0 39 -8.16699 65 -24.5s46 -24.5 60 -24.5c5.33301 0 10.166 0.833008 14.499 2.5s8.16602 4 11.499 7s6.33301 6.16699 9 9.5s4.83398 6.83301 6.50098 10.5s3 6.83398 4 9.50098
s1.83301 5 2.5 7l1 3h62c-9.33301 -35.333 -25.833 -62.5 -49.5 -81.5s-47.5 -28.5 -71.5 -28.5c-18.667 0 -40.667 8 -66 24s-45 24 -59 24c-5.33301 0 -10.333 -0.833008 -15 -2.5s-8.5 -4 -11.5 -7s-5.83301 -6.16699 -8.5 -9.5s-5 -6.66602 -7 -9.99902
s-3.5 -6.33301 -4.5 -9s-1.83301 -5 -2.5 -7l-1 -3h-61zM65.001 84.998c0 56.667 35.001 98.668 105.001 126.001c56.667 22.667 124.667 34 204 34c8.66699 42.667 13 68.667 13 78c0 19.333 -5.16699 37.166 -15.5 53.499s-27.833 24.5 -52.5 24.5
c-8.66699 0 -17 -0.333008 -25 -1s-15.833 -1.83398 -23.5 -3.50098l-20.5 -4.5c-6 -1.33301 -12.667 -3.5 -20 -6.5s-13 -5.16699 -17 -6.5s-9.66699 -3.83301 -17 -7.5s-11.833 -6 -13.5 -7l-13.5 -8c-7.33301 -4.33301 -11.333 -6.5 -12 -6.5l8 67
c56 29.333 111.333 44 166 44c45.333 0 79.166 -13.167 101.499 -39.5s33.5 -56.833 33.5 -91.5c0 -6 -2.66699 -24.333 -8 -55l-58 -275h-76l7 35c-53.333 -30.667 -112.333 -46 -177 -46c-32 0 -54.833 9.83301 -68.5 29.5s-20.5 41.834 -20.5 66.501zM140.002 103.999
c0 -14.667 7.16699 -27.1689 21.5 -37.502s33.5 -15.5 57.5 -15.5c30 0 56.5 5.66699 79.5 17s38.167 26.333 45.5 45c2.66699 7.33301 8.66699 34 18 80c-65.333 -1.33301 -119 -9.66602 -161 -24.999c-40.667 -15.333 -61 -36.666 -61 -63.999z" />
    <glyph glyph-name="adieresis" unicode="&#xe4;" horiz-adv-x="480" 
d="M229 570l19 89h89l-18 -89h-90zM424 571l19 89h89l-18 -89h-90zM65 85c0 56.667 35.001 98.668 105.001 126.001c56.667 22.667 124.667 34 204 34c8.66699 42.667 13 68.667 13 78c0 19.333 -5.16699 37.166 -15.5 53.499s-27.833 24.5 -52.5 24.5
c-8.66699 0 -17 -0.333008 -25 -1s-15.833 -1.83398 -23.5 -3.50098l-20.5 -4.5c-6 -1.33301 -12.667 -3.5 -20 -6.5s-13 -5.16699 -17 -6.5s-9.66699 -3.83301 -17 -7.5s-11.833 -6 -13.5 -7l-13.5 -8c-7.33301 -4.33301 -11.333 -6.5 -12 -6.5l8 67
c56 29.333 111.333 44 166 44c45.333 0 79.166 -13.167 101.499 -39.5s33.5 -56.833 33.5 -91.5c0 -6 -2.66699 -24.333 -8 -55l-58 -275h-76l7 35c-53.333 -30.667 -112.333 -46 -177 -46c-32 0 -54.833 9.83301 -68.5 29.5s-20.5 41.834 -20.5 66.501zM140.001 104.001
c0 -14.667 7.16699 -27.1689 21.5 -37.502s33.5 -15.5 57.5 -15.5c30 0 56.5 5.66699 79.5 17s38.167 26.333 45.5 45c2.66699 7.33301 8.66699 34 18 80c-65.333 -1.33301 -119 -9.66602 -161 -24.999c-40.667 -15.333 -61 -36.666 -61 -63.999z" />
    <glyph glyph-name="aring" unicode="&#xe5;" horiz-adv-x="480" 
d="M65 85c0 56.667 35.001 98.668 105.001 126.001c56.667 22.667 124.667 34 204 34c8.66699 42.667 13 68.667 13 78c0 19.333 -5.16699 37.166 -15.5 53.499s-27.833 24.5 -52.5 24.5c-8.66699 0 -17 -0.333008 -25 -1s-15.833 -1.83398 -23.5 -3.50098l-20.5 -4.5
c-6 -1.33301 -12.667 -3.5 -20 -6.5s-13 -5.16699 -17 -6.5s-9.66699 -3.83301 -17 -7.5s-11.833 -6 -13.5 -7l-13.5 -8c-7.33301 -4.33301 -11.333 -6.5 -12 -6.5l8 67c56 29.333 111.333 44 166 44c45.333 0 79.166 -13.167 101.499 -39.5s33.5 -56.833 33.5 -91.5
c0 -6 -2.66699 -24.333 -8 -55l-58 -275h-76l7 35c-53.333 -30.667 -112.333 -46 -177 -46c-32 0 -54.833 9.83301 -68.5 29.5s-20.5 41.834 -20.5 66.501zM140.001 104.001c0 -14.667 7.16699 -27.1689 21.5 -37.502s33.5 -15.5 57.5 -15.5c30 0 56.5 5.66699 79.5 17
s38.167 26.333 45.5 45c2.66699 7.33301 8.66699 34 18 80c-65.333 -1.33301 -119 -9.66602 -161 -24.999c-40.667 -15.333 -61 -36.666 -61 -63.999zM244.001 545.999c0 23.333 12.333 44.167 37 62.5s52.667 28.166 84 29.499h16c22.667 -1.33301 43 -7.5 61 -18.5
s27 -27.5 27 -49.5s-11.5 -42.5 -34.5 -61.5s-51.833 -29.5 -86.5 -31.5h-16c-21.333 0.666992 -41.333 6.83398 -60 18.501s-28 28.5 -28 50.5zM300.001 547c0 -25.333 15.333 -38 46 -38c22 0 38.667 6.16699 50 18.5s17 25.833 17 40.5c0 25.333 -15 38 -45 38
c-22 0 -38.833 -6.16699 -50.5 -18.5s-17.5 -25.833 -17.5 -40.5z" />
    <glyph glyph-name="ae" unicode="&#xe6;" horiz-adv-x="722" 
d="M68 85c0 30.667 9.83398 57.166 29.501 79.499s45.667 39 78 50s64.666 19 96.999 24s66.166 7.83301 101.499 8.5c8.66699 40.667 13 65.667 13 75c0 22.667 -5.83301 41.5 -17.5 56.5s-28.5 22.5 -50.5 22.5c-52 0 -105.667 -17 -161 -51l8 67
c56.667 29.333 112.334 44 167.001 44c60.667 0 101.667 -26 123 -78c54 52 110.667 78 170 78c33.333 0 62.666 -11 87.999 -33s38 -60.333 38 -115c0 -24 -3.66699 -55 -11 -93h-294c-2.66699 -17.333 -4 -30.666 -4 -39.999c0 -35.333 10 -65.666 30 -90.999
s47.667 -38 83 -38c46.667 0 96.334 18.333 149.001 55l-8 -66c-52 -34 -104 -51 -156 -51c-64 0 -113 25.333 -147 76c-50.667 -50.667 -130 -76 -238 -76c-32 0 -54.667 9.66699 -68 29s-20 41.666 -20 66.999zM143.001 104.999c0 -14 6.16797 -26.666 18.501 -37.999
s32.166 -17 59.499 -17c28.667 0 55.167 5 79.5 15s40.5 25.333 48.5 46c2 5.33301 6.66699 32 14 80c-54.667 -0.666992 -105 -7.83398 -151 -21.501s-69 -35.167 -69 -64.5zM464.002 275h229c0 2 0.166992 5 0.5 9s0.5 7 0.5 9c0 39.333 -8.16699 66.833 -24.5 82.5
s-35.166 23.5 -56.499 23.5c-29.333 0 -57.833 -12 -85.5 -36s-48.834 -53.333 -63.501 -88z" />
    <glyph glyph-name="ccedilla" unicode="&#xe7;" horiz-adv-x="444" 
d="M77 170c0 72.667 27.6611 139.333 82.9941 200s119 91 191 91c34.667 0 61.334 -3 80.001 -9s41.334 -17.667 68.001 -35l-25 -66c-30 21.333 -52.667 34.333 -68 39c-17.333 4.66699 -39 7 -65 7c-38 0 -71.667 -12.5 -101 -37.5s-50.666 -54 -63.999 -87
s-20 -65.833 -20 -98.5c0 -35.333 9.33301 -64.333 28 -87s45.334 -34 80.001 -34c24 0 47.667 3.33301 71 10s40.333 12.667 51 18s26.334 14 47.001 26l-8 -67c-60 -34 -118 -51 -174 -51c-53.333 0 -95.666 17.167 -126.999 51.5s-47 77.5 -47 129.5zM103.994 -192.001
l110 169h61l-101 -169h-70z" />
    <glyph glyph-name="egrave" unicode="&#xe8;" horiz-adv-x="444" 
d="M76 171c0 73.333 26.6689 140.003 80.002 200.003s112.666 90 177.999 90c37.333 0 69.666 -11.833 96.999 -35.5s41 -63.167 41 -118.5c0 -20 -3.66699 -49 -11 -87h-310c-0.666992 -6.66699 -1.33398 -12.334 -2.00098 -17.001s-1.16699 -7.83398 -1.5 -9.50098
s-0.5 -3.33398 -0.5 -5.00098v-6.5c0 -38 10.833 -69.5 32.5 -94.5s49.5 -37.5 83.5 -37.5c52.667 0 107.334 18.667 164.001 56l-8 -66c-57.333 -34 -113.666 -51 -168.999 -51c-52.667 0 -94.834 17.333 -126.501 52s-47.5 78 -47.5 130zM168.002 275.003l248 0.000976562
v13c0 41.333 -9.66699 70.166 -29 86.499s-41 24.5 -65 24.5c-32 0 -62.167 -12.333 -90.5 -37s-49.5 -53.667 -63.5 -87zM288.002 640.004h78l106 -130h-62z" />
    <glyph glyph-name="eacute" unicode="&#xe9;" horiz-adv-x="444" 
d="M216 510l160 130h46l33 -1l-177 -129h-62zM76 171c0 73.333 26.6689 140.003 80.002 200.003s112.666 90 177.999 90c37.333 0 69.666 -11.833 96.999 -35.5s41 -63.167 41 -118.5c0 -20 -3.66699 -49 -11 -87h-310
c-0.666992 -6.66699 -1.33398 -12.334 -2.00098 -17.001s-1.16699 -7.83398 -1.5 -9.50098s-0.5 -3.33398 -0.5 -5.00098v-6.5c0 -38 10.833 -69.5 32.5 -94.5s49.5 -37.5 83.5 -37.5c52.667 0 107.334 18.667 164.001 56l-8 -66c-57.333 -34 -113.666 -51 -168.999 -51
c-52.667 0 -94.834 17.333 -126.501 52s-47.5 78 -47.5 130zM168.002 275.003l248 0.000976562v13c0 41.333 -9.66699 70.166 -29 86.499s-41 24.5 -65 24.5c-32 0 -62.167 -12.333 -90.5 -37s-49.5 -53.667 -63.5 -87z" />
    <glyph glyph-name="ecircumflex" unicode="&#xea;" horiz-adv-x="444" 
d="M76 171c0 73.333 26.6689 140.003 80.002 200.003s112.666 90 177.999 90c37.333 0 69.666 -11.833 96.999 -35.5s41 -63.167 41 -118.5c0 -20 -3.66699 -49 -11 -87h-310c-0.666992 -6.66699 -1.33398 -12.334 -2.00098 -17.001s-1.16699 -7.83398 -1.5 -9.50098
s-0.5 -3.33398 -0.5 -5.00098v-6.5c0 -38 10.833 -69.5 32.5 -94.5s49.5 -37.5 83.5 -37.5c52.667 0 107.334 18.667 164.001 56l-8 -66c-57.333 -34 -113.666 -51 -168.999 -51c-52.667 0 -94.834 17.333 -126.501 52s-47.5 78 -47.5 130zM168.002 275.003l248 0.000976562
v13c0 41.333 -9.66699 70.166 -29 86.499s-41 24.5 -65 24.5c-32 0 -62.167 -12.333 -90.5 -37s-49.5 -53.667 -63.5 -87zM174.002 510.004l91.002 82.999c31.333 28.667 50.166 45.334 56.499 50.001s13.166 7 20.499 7h49l95 -141h-62l-73 99l-58 -50
c-28 -24.667 -45 -39 -51 -43s-12.667 -6 -20 -6h-9z" />
    <glyph glyph-name="edieresis" unicode="&#xeb;" horiz-adv-x="444" 
d="M201 570l19 89h89l-18 -89h-90zM396 571l19 89h89l-18 -89h-90zM76 171c0 73.333 26.6689 140.003 80.002 200.003s112.666 90 177.999 90c37.333 0 69.666 -11.833 96.999 -35.5s41 -63.167 41 -118.5c0 -20 -3.66699 -49 -11 -87h-310
c-0.666992 -6.66699 -1.33398 -12.334 -2.00098 -17.001s-1.16699 -7.83398 -1.5 -9.50098s-0.5 -3.33398 -0.5 -5.00098v-6.5c0 -38 10.833 -69.5 32.5 -94.5s49.5 -37.5 83.5 -37.5c52.667 0 107.334 18.667 164.001 56l-8 -66c-57.333 -34 -113.666 -51 -168.999 -51
c-52.667 0 -94.834 17.333 -126.501 52s-47.5 78 -47.5 130zM168.002 275.003l248 0.000976562v13c0 41.333 -9.66699 70.166 -29 86.499s-41 24.5 -65 24.5c-32 0 -62.167 -12.333 -90.5 -37s-49.5 -53.667 -63.5 -87z" />
    <glyph glyph-name="eth" unicode="&#xf0;" 
d="M71 169c0 74 28.5 141.168 85.5 201.501s120.5 90.5 190.5 90.5c32.667 0 64.334 -9 95.001 -27c-12.667 49.333 -39.334 99.333 -80.001 150l-108 -55l-22 60l79 41c-30 18.667 -63 34.667 -99 48l63 44c40 -12.667 75.333 -31.334 106 -56.001l110 56l22 -60l-82 -42
c68 -75.333 102 -165.333 102 -270c0 -46.667 -7.66699 -96.667 -23 -150c-18.667 -64 -54 -115.167 -106 -153.5s-104.333 -57.5 -157 -57.5c-52 0 -94.333 17 -127 51s-49 77 -49 129zM151 176.001c0 -44 11.167 -75.5 33.5 -94.5s47.833 -28.5 76.5 -28.5
c48.667 0 91.167 22.5 127.5 67.5s54.5 96.5 54.5 154.5c0 44 -11.167 75.667 -33.5 95s-47.833 29 -76.5 29c-51.333 0 -94.5 -22.5 -129.5 -67.5s-52.5 -96.833 -52.5 -155.5z" />
    <glyph glyph-name="ntilde" unicode="&#xf1;" horiz-adv-x="517" 
d="M204 529c8 33.333 23.834 59.998 47.501 79.998s48.167 30 73.5 30c17.333 0 39 -8.16699 65 -24.5s46 -24.5 60 -24.5c5.33301 0 10.166 0.833008 14.499 2.5s8.16602 4 11.499 7s6.33301 6.16699 9 9.5s4.83398 6.83301 6.50098 10.5s3 6.83398 4 9.50098
s1.83301 5 2.5 7l1 3h62c-9.33301 -35.333 -25.833 -62.5 -49.5 -81.5s-47.5 -28.5 -71.5 -28.5c-18.667 0 -40.667 8 -66 24s-45 24 -59 24c-5.33301 0 -10.333 -0.833008 -15 -2.5s-8.5 -4 -11.5 -7s-5.83301 -6.16699 -8.5 -9.5s-5 -6.66602 -7 -9.99902
s-3.5 -6.33301 -4.5 -9s-1.83301 -5 -2.5 -7l-1 -3h-61zM80.001 -0.00195312l95 450h73l-14 -70c50 50 103.667 75 161 75c74 0 111 -33.333 111 -100c0 -14.667 -2.66699 -36 -8 -64l-62 -291h-78l61 289c3.33301 14.667 5 27.667 5 39c0 44 -27 66 -81 66
c-23.333 0 -44.5 -8.16699 -63.5 -24.5s-33 -33 -42 -50s-16.167 -34.5 -21.5 -52.5c-4 -12.667 -23.333 -101.667 -58 -267h-78z" />
    <glyph glyph-name="ograve" unicode="&#xf2;" 
d="M288 640h78l106 -130h-62zM71 169c0 73.333 28.501 140.332 85.501 200.999s120.5 91 190.5 91c51.333 0 93.166 -17.667 125.499 -53s48.5 -80 48.5 -134c0 -75.333 -28.333 -141.666 -85 -198.999s-119.667 -86 -189 -86c-52 0 -94.333 17 -127 51s-49 77 -49 129z
M151.001 175.999c0 -44 11.168 -75.5 33.501 -94.5s47.833 -28.5 76.5 -28.5c52 0 95.667 24 131 72s53 99.667 53 155c0 36.667 -10 65.667 -30 87s-47 32 -81 32c-52.667 0 -96.334 -22.667 -131.001 -68s-52 -97 -52 -155z" />
    <glyph glyph-name="oacute" unicode="&#xf3;" 
d="M299 510l160 130h46l33 -1l-177 -129h-62zM71 169c0 73.333 28.501 140.332 85.501 200.999s120.5 91 190.5 91c51.333 0 93.166 -17.667 125.499 -53s48.5 -80 48.5 -134c0 -75.333 -28.333 -141.666 -85 -198.999s-119.667 -86 -189 -86c-52 0 -94.333 17 -127 51
s-49 77 -49 129zM151.001 175.999c0 -44 11.168 -75.5 33.501 -94.5s47.833 -28.5 76.5 -28.5c52 0 95.667 24 131 72s53 99.667 53 155c0 36.667 -10 65.667 -30 87s-47 32 -81 32c-52.667 0 -96.334 -22.667 -131.001 -68s-52 -97 -52 -155z" />
    <glyph glyph-name="ocircumflex" unicode="&#xf4;" 
d="M202 510c96 86.667 144.999 131 146.999 133c6.66699 4.66699 13.667 7 21 7h48l95 -141h-61l-74 99l-64 -56c-24.667 -21.333 -39.667 -33.833 -45 -37.5s-11.666 -5.5 -18.999 -5.5h-9zM70.999 169c0 73.333 28.501 140.332 85.501 200.999s120.5 91 190.5 91
c51.333 0 93.166 -17.667 125.499 -53s48.5 -80 48.5 -134c0 -75.333 -28.333 -141.666 -85 -198.999s-119.667 -86 -189 -86c-52 0 -94.333 17 -127 51s-49 77 -49 129zM151 175.999c0 -44 11.168 -75.5 33.501 -94.5s47.833 -28.5 76.5 -28.5c52 0 95.667 24 131 72
s53 99.667 53 155c0 36.667 -10 65.667 -30 87s-47 32 -81 32c-52.667 0 -96.334 -22.667 -131.001 -68s-52 -97 -52 -155z" />
    <glyph glyph-name="otilde" unicode="&#xf5;" 
d="M195 529c8 33.333 23.834 59.998 47.501 79.998s48.167 30 73.5 30c17.333 0 39 -8.16699 65 -24.5s46 -24.5 60 -24.5c5.33301 0 10.166 0.833008 14.499 2.5s8.16602 4 11.499 7s6.33301 6.16699 9 9.5s4.83398 6.83301 6.50098 10.5s3 6.83398 4 9.50098
s1.83301 5 2.5 7l1 3h62c-9.33301 -35.333 -25.833 -62.5 -49.5 -81.5s-47.5 -28.5 -71.5 -28.5c-18.667 0 -40.667 8 -66 24s-45 24 -59 24c-5.33301 0 -10.333 -0.833008 -15 -2.5s-8.5 -4 -11.5 -7s-5.83301 -6.16699 -8.5 -9.5s-5 -6.66602 -7 -9.99902
s-3.5 -6.33301 -4.5 -9s-1.83301 -5 -2.5 -7l-1 -3h-61zM71.001 168.998c0 73.333 28.501 140.332 85.501 200.999s120.5 91 190.5 91c51.333 0 93.166 -17.667 125.499 -53s48.5 -80 48.5 -134c0 -75.333 -28.333 -141.666 -85 -198.999s-119.667 -86 -189 -86
c-52 0 -94.333 17 -127 51s-49 77 -49 129zM151.002 175.997c0 -44 11.168 -75.5 33.501 -94.5s47.833 -28.5 76.5 -28.5c52 0 95.667 24 131 72s53 99.667 53 155c0 36.667 -10 65.667 -30 87s-47 32 -81 32c-52.667 0 -96.334 -22.667 -131.001 -68s-52 -97 -52 -155z" />
    <glyph glyph-name="odieresis" unicode="&#xf6;" 
d="M228 570l19 89h89l-18 -89h-90zM423 571l19 89h89l-18 -89h-90zM71 169c0 73.333 28.501 140.332 85.501 200.999s120.5 91 190.5 91c51.333 0 93.166 -17.667 125.499 -53s48.5 -80 48.5 -134c0 -75.333 -28.333 -141.666 -85 -198.999s-119.667 -86 -189 -86
c-52 0 -94.333 17 -127 51s-49 77 -49 129zM151.001 175.999c0 -44 11.168 -75.5 33.501 -94.5s47.833 -28.5 76.5 -28.5c52 0 95.667 24 131 72s53 99.667 53 155c0 36.667 -10 65.667 -30 87s-47 32 -81 32c-52.667 0 -96.334 -22.667 -131.001 -68s-52 -97 -52 -155z" />
    <glyph glyph-name="divide" unicode="&#xf7;" horiz-adv-x="778" 
d="M109 250c0 13.333 9.66602 20 28.999 20h599h6h5.5h5c2.33301 0 3.83301 -0.166992 4.5 -0.5s1.83398 -0.833008 3.50098 -1.5s3 -1.5 4 -2.5s2 -2.16699 3 -3.5s2.16699 -3 3.5 -5c0.666992 -1.33301 1 -4 1 -8c0 -12.667 -9.66699 -19 -29 -19h-608
c-18 0 -27 6.66699 -27 20zM323.999 -13c0 18.667 6.33398 48.668 19.001 90.001l4 5l5 4l6 2l12 1h63c11.333 0 19.166 -1.66699 23.499 -5s6.5 -9 6.5 -17c0 -6.66699 -2.83301 -22.334 -8.5 -47.001s-10.167 -40 -13.5 -46c-6 -5.33301 -13.667 -8 -23 -8h-65
c-19.333 0 -29 7 -29 21zM419 433.001c0 14 6.33301 43.667 19 89l3 5l6 4l6 2l11 1h64c20 0 30 -7 30 -21c0 -14.667 -6.33301 -44.667 -19 -90c-8 -8 -16.667 -12 -26 -12h-65c-19.333 0 -29 7.33301 -29 22z" />
    <glyph glyph-name="oslash" unicode="&#xf8;" 
d="M25 -83l95.999 124c-32 34.667 -48 77 -48 127c0 74 28.333 141.333 85 202s119.667 91 189 91c24.667 0 53 -7 85 -21l89 116h1l47 -30l-94 -120v-1c30 -34.667 45 -78 45 -130c0 -76.667 -28.5 -143.5 -85.5 -200.5s-119.5 -85.5 -187.5 -85.5
c-27.333 0 -54.666 6.33301 -81.999 19l-93 -120zM147.999 170c0 -29.333 6 -53 18 -71l224 287c-18.667 8.66699 -37 13 -55 13c-53.333 0 -97.833 -24.167 -133.5 -72.5s-53.5 -100.5 -53.5 -156.5zM207.999 62c18 -8 35.667 -12.001 53 -12.001
c49.333 0 92.5 22 129.5 66s55.5 97 55.5 159c0 24.667 -5.66699 48.334 -17 71.001z" />
    <glyph glyph-name="ugrave" unicode="&#xf9;" horiz-adv-x="517" 
d="M97 63c0 11.333 4.66797 39.002 14.001 83.002l63 299h78l-67 -319c-4.66699 -24.667 -7 -38.334 -7 -41.001c0 -16 6 -26.667 18 -32s29.333 -8 52 -8c35.333 0 64.5 8.66699 87.5 26s38.5 35.666 46.5 54.999c1.33301 3.33301 4.66602 16.333 9.99902 39l60 280h78
l-94 -445h-76l10 48c-54.667 -39.333 -117.667 -59 -189 -59c-56 0 -84 24.667 -84 74zM282.001 640.002h78l106 -130h-62z" />
    <glyph glyph-name="uacute" unicode="&#xfa;" horiz-adv-x="517" 
d="M252 510l160 130h46l33 -1l-177 -129h-62zM97 63c0 11.333 4.66797 39.002 14.001 83.002l63 299h78l-67 -319c-4.66699 -24.667 -7 -38.334 -7 -41.001c0 -16 6 -26.667 18 -32s29.333 -8 52 -8c35.333 0 64.5 8.66699 87.5 26s38.5 35.666 46.5 54.999
c1.33301 3.33301 4.66602 16.333 9.99902 39l60 280h78l-94 -445h-76l10 48c-54.667 -39.333 -117.667 -59 -189 -59c-56 0 -84 24.667 -84 74z" />
    <glyph glyph-name="ucircumflex" unicode="&#xfb;" horiz-adv-x="517" 
d="M97 63c0 11.333 4.66797 39.002 14.001 83.002l63 299h78l-67 -319c-4.66699 -24.667 -7 -38.334 -7 -41.001c0 -16 6 -26.667 18 -32s29.333 -8 52 -8c35.333 0 64.5 8.66699 87.5 26s38.5 35.666 46.5 54.999c1.33301 3.33301 4.66602 16.333 9.99902 39l60 280h78
l-94 -445h-76l10 48c-54.667 -39.333 -117.667 -59 -189 -59c-56 0 -84 24.667 -84 74zM210.001 510.002l91.002 82.999c31.333 28.667 50.166 45.334 56.499 50.001s13.166 7 20.499 7h49l95 -141h-62l-73 99l-115 -99h-35z" />
    <glyph glyph-name="udieresis" unicode="&#xfc;" horiz-adv-x="517" 
d="M237 570l19 89h89l-18 -89h-90zM432 570l19 89h89l-18 -89h-90zM97 63c0 11.333 4.66797 39.002 14.001 83.002l63 299h78l-67 -319c-4.66699 -24.667 -7 -38.334 -7 -41.001c0 -16 6 -26.667 18 -32s29.333 -8 52 -8c35.333 0 64.5 8.66699 87.5 26
s38.5 35.666 46.5 54.999c1.33301 3.33301 4.66602 16.333 9.99902 39l60 280h78l-94 -445h-76l10 48c-54.667 -39.333 -117.667 -59 -189 -59c-56 0 -84 24.667 -84 74z" />
    <glyph glyph-name="yacute" unicode="&#xfd;" horiz-adv-x="461" 
d="M280 510l160 130h46l33 -1l-177 -129h-62zM0 -198l8.00098 65.998c32 -10.667 55 -16 69 -16c19.333 0 35.666 7.33301 48.999 22s33 43.334 59 86.001l12 20c7.33301 10.667 11 18.334 11 23.001c0 3.33301 -1 8.33301 -3 15l-96 427h79
c42 -188.667 63 -309.334 63 -362.001c0 -9.33301 -0.666992 -20.333 -2 -33c3.33301 11.333 8.33301 25.166 15 41.499s16 35.5 28 57.5l32 59c9.33301 17.333 22.5 40.166 39.5 68.499l36.5 60.5l37.5 61c17.667 28.667 27.167 44.334 28.5 47.001h75l-336 -544
c-20 -31.333 -39 -55.166 -57 -71.499s-32 -26.166 -42 -29.499s-21.667 -5 -35 -5c-25.333 0 -49 2.33301 -71 7z" />
    <glyph glyph-name="thorn" unicode="&#xfe;" horiz-adv-x="517" 
d="M40 -195l195 917h75l-69 -326c56.667 39.333 115.667 59 177 59c40 0 69.5 -16.333 88.5 -49s28.5 -70 28.5 -112c0 -78.667 -24.667 -149.167 -74 -211.5s-105.666 -93.5 -168.999 -93.5c-48.667 0 -89.334 19 -122.001 57l-52 -241h-78zM185 117
c0 -12 6.83203 -26.001 20.499 -42.001s33.834 -24 60.501 -24c46.667 0 89.667 21.5 129 64.5s59 92.833 59 149.5c0 36.667 -9.83301 66.834 -29.5 90.501s-45.167 35.5 -76.5 35.5c-26 0 -50.333 -7 -73 -21s-37 -26.333 -43 -37
c-2.66699 -4.66699 -11.167 -41.167 -25.5 -109.5s-21.5 -103.833 -21.5 -106.5z" />
    <glyph glyph-name="ydieresis" unicode="&#xff;" horiz-adv-x="461" 
d="M210 570l19 89h89l-18 -89h-90zM405 571l19 89h89l-18 -89h-90zM0 -198l8.00098 65.998c32 -10.667 55 -16 69 -16c19.333 0 35.666 7.33301 48.999 22s33 43.334 59 86.001l12 20c7.33301 10.667 11 18.334 11 23.001c0 3.33301 -1 8.33301 -3 15l-96 427h79
c42 -188.667 63 -309.334 63 -362.001c0 -9.33301 -0.666992 -20.333 -2 -33c3.33301 11.333 8.33301 25.166 15 41.499s16 35.5 28 57.5l32 59c9.33301 17.333 22.5 40.166 39.5 68.499l36.5 60.5l37.5 61c17.667 28.667 27.167 44.334 28.5 47.001h75l-336 -544
c-20 -31.333 -39 -55.166 -57 -71.499s-32 -26.166 -42 -29.499s-21.667 -5 -35 -5c-25.333 0 -49 2.33301 -71 7z" />
    <glyph glyph-name="Amacron" unicode="&#x100;" horiz-adv-x="667" 
d="M302 773l14 64h388l-14 -64h-388zM27 0l408 694h89l113 -694h-92l-33 204h-290l-120 -204h-75zM254 260l249 -0.000976562c-31.333 200.667 -47 318.334 -47 353.001v11c-10 -22.667 -25.5 -53.167 -46.5 -91.5l-90 -158.5c-39 -67.333 -60.833 -105.333 -65.5 -114z" />
    <glyph glyph-name="amacron" unicode="&#x101;" horiz-adv-x="480" 
d="M170 552l14 64h360l-14 -64h-360zM65 85c0 56.667 35.001 98.668 105.001 126.001c56.667 22.667 124.667 34 204 34c8.66699 42.667 13 68.667 13 78c0 19.333 -5.16699 37.166 -15.5 53.499s-27.833 24.5 -52.5 24.5c-8.66699 0 -17 -0.333008 -25 -1
s-15.833 -1.83398 -23.5 -3.50098l-20.5 -4.5c-6 -1.33301 -12.667 -3.5 -20 -6.5s-13 -5.16699 -17 -6.5s-9.66699 -3.83301 -17 -7.5s-11.833 -6 -13.5 -7l-13.5 -8c-7.33301 -4.33301 -11.333 -6.5 -12 -6.5l8 67c56 29.333 111.333 44 166 44
c45.333 0 79.166 -13.167 101.499 -39.5s33.5 -56.833 33.5 -91.5c0 -6 -2.66699 -24.333 -8 -55l-58 -275h-76l7 35c-53.333 -30.667 -112.333 -46 -177 -46c-32 0 -54.833 9.83301 -68.5 29.5s-20.5 41.834 -20.5 66.501zM140.001 104.001
c0 -14.667 7.16699 -27.1689 21.5 -37.502s33.5 -15.5 57.5 -15.5c30 0 56.5 5.66699 79.5 17s38.167 26.333 45.5 45c2.66699 7.33301 8.66699 34 18 80c-65.333 -1.33301 -119 -9.66602 -161 -24.999c-40.667 -15.333 -61 -36.666 -61 -63.999z" />
    <glyph glyph-name="Abreve" unicode="&#x102;" horiz-adv-x="667" 
d="M27 0l408 694h89l113 -694h-92l-33 204h-290l-120 -204h-75zM254 260l249 -0.000976562c-31.333 200.667 -47 318.334 -47 353.001v11c-10 -22.667 -25.5 -53.167 -46.5 -91.5l-90 -158.5c-39 -67.333 -60.833 -105.333 -65.5 -114zM341 855.999
c0 2.66699 1.00098 13.666 3.00098 32.999h62l-1 -6c-0.666992 -4 -1 -7.66699 -1 -11c0 -24 8.66699 -43 26 -57s38.666 -21 63.999 -21c28 0 54.5 8.66699 79.5 26s41.167 40.333 48.5 69h61c-10 -46 -35 -84.5 -75 -115.5s-82.667 -46.5 -128 -46.5
c-40 0 -73.167 11.833 -99.5 35.5s-39.5 54.834 -39.5 93.501z" />
    <glyph glyph-name="abreve" unicode="&#x103;" horiz-adv-x="480" 
d="M214 612c0 16.667 0.666016 25.6689 1.99902 27.002h62c-0.666992 -2.66699 -1 -6.33398 -1 -11.001c0 -22 9.5 -38 28.5 -48s40.833 -15 65.5 -15c24 0 48.333 5.5 73 16.5s41 29.833 49 56.5v1h62c-12 -43.333 -37.167 -77.5 -75.5 -102.5
s-79.166 -37.833 -122.499 -38.5h-1c-40.667 0 -74.5 10.667 -101.5 32s-40.5 48.666 -40.5 81.999zM64.999 85.002c0 56.667 35.001 98.668 105.001 126.001c56.667 22.667 124.667 34 204 34c8.66699 42.667 13 68.667 13 78c0 19.333 -5.16699 37.166 -15.5 53.499
s-27.833 24.5 -52.5 24.5c-8.66699 0 -17 -0.333008 -25 -1s-15.833 -1.83398 -23.5 -3.50098l-20.5 -4.5c-6 -1.33301 -12.667 -3.5 -20 -6.5s-13 -5.16699 -17 -6.5s-9.66699 -3.83301 -17 -7.5s-11.833 -6 -13.5 -7l-13.5 -8c-7.33301 -4.33301 -11.333 -6.5 -12 -6.5
l8 67c56 29.333 111.333 44 166 44c45.333 0 79.166 -13.167 101.499 -39.5s33.5 -56.833 33.5 -91.5c0 -6 -2.66699 -24.333 -8 -55l-58 -275h-76l7 35c-53.333 -30.667 -112.333 -46 -177 -46c-32 0 -54.833 9.83301 -68.5 29.5s-20.5 41.834 -20.5 66.501zM140 104.003
c0 -14.667 7.16699 -27.1689 21.5 -37.502s33.5 -15.5 57.5 -15.5c30 0 56.5 5.66699 79.5 17s38.167 26.333 45.5 45c2.66699 7.33301 8.66699 34 18 80c-65.333 -1.33301 -119 -9.66602 -161 -24.999c-40.667 -15.333 -61 -36.666 -61 -63.999z" />
    <glyph glyph-name="aogonek" unicode="&#x105;" horiz-adv-x="480" 
d="M65 85c0 56.667 35 98.666 105 125.999c56.667 22.667 124.667 34 204 34c8.66699 42.667 13 68.667 13 78c0 19.333 -5.16699 37.166 -15.5 53.499s-27.833 24.5 -52.5 24.5c-8.66699 0 -17 -0.333008 -25 -1s-15.833 -1.83398 -23.5 -3.50098l-20.5 -4.5
c-6 -1.33301 -12.667 -3.5 -20 -6.5s-13 -5.16699 -17 -6.5s-9.66699 -3.83301 -17 -7.5s-11.833 -6 -13.5 -7l-13.5 -8c-7.33301 -4.33301 -11.333 -6.5 -12 -6.5l8 67c56 29.333 111.333 44 166 44c45.333 0 79.166 -13.167 101.499 -39.5s33.5 -56.833 33.5 -91.5
c0 -6 -2.66699 -24.333 -8 -55l-58 -275c-24 0 -51.333 -13.667 -82 -41s-46 -51.666 -46 -72.999c0 -22 15.333 -33 46 -33c11.333 0 35 4.66699 71 14l3 -59c-39.333 -16.667 -73.666 -25 -102.999 -25c-23.333 0 -42.5 6 -57.5 18s-22.5 29 -22.5 51
c0 54.667 38.667 104.334 116 149.001l6 34c-53.333 -30.667 -112.333 -46 -177 -46c-32 0 -54.833 9.83301 -68.5 29.5s-20.5 41.834 -20.5 66.501zM140 103.999c0 -14.667 7.16699 -27.1689 21.5 -37.502s33.5 -15.5 57.5 -15.5c30 0 56.5 5.66699 79.5 17
s38.167 26.333 45.5 45c2.66699 7.33301 8.66699 34 18 80c-65.333 -1.33301 -119 -9.66602 -161 -24.999c-40.667 -15.333 -61 -36.666 -61 -63.999z" />
    <glyph glyph-name="Cacute" unicode="&#x106;" horiz-adv-x="639" 
d="M130 259c0 56 11.498 111.835 34.498 167.502s53.167 104.667 90.5 147s81.666 76.666 132.999 102.999s103.666 39.5 156.999 39.5c60.667 0 119.667 -11.333 177 -34l-32 -83c-24.667 18 -48.667 31.333 -72 40s-52.666 13 -87.999 13
c-32.667 0 -66.667 -8.83301 -102 -26.5s-68.666 -42.334 -99.999 -74.001s-57.166 -73 -77.499 -124s-30.5 -106.167 -30.5 -165.5c0 -60 15.667 -111.667 47 -155s76.333 -65 135 -65c31.333 0 59.333 3 84 9s42.834 11.833 54.501 17.5s32.834 17.167 63.501 34.5l-9 -70
c-41.333 -21.333 -75.333 -35.833 -102 -43.5s-61.334 -11.5 -104.001 -11.5c-81.333 0 -144.833 27 -190.5 81s-68.5 120.667 -68.5 200zM395.998 760.002l106 55c34 17.333 54.5 27.5 61.5 30.5s13.833 4.5 20.5 4.5h99l-175 -79l-25 -10l-15 -1h-72z" />
    <glyph glyph-name="cacute" unicode="&#x107;" horiz-adv-x="444" 
d="M258 510l160 130h46l33 -1l-177 -129h-62zM77 170c0 72 27.3271 138.5 81.9941 199.5s118.667 91.5 192 91.5c34.667 0 61.334 -3 80.001 -9s41.334 -17.667 68.001 -35l-25 -66c-30 21.333 -52.667 34.333 -68 39c-17.333 4.66699 -39 7 -65 7
c-38 0 -71.667 -12.5 -101 -37.5s-50.666 -54 -63.999 -87s-20 -65.833 -20 -98.5c0 -35.333 9.33301 -64.333 28 -87s45.334 -34 80.001 -34c24 0 47.667 3.33301 71 10s40.333 12.667 51 18s26.334 14 47.001 26l-8 -67c-60 -34 -118 -51 -174 -51
c-53.333 0 -95.666 17.167 -126.999 51.5s-47 77.5 -47 129.5z" />
    <glyph glyph-name="Ccircumflex" unicode="&#x108;" horiz-adv-x="639" 
d="M392 727l162 173h76l73 -173h-61l-68 122l-120 -122h-62zM130 259c0 56 11.498 111.835 34.498 167.502s53.167 104.667 90.5 147s81.666 76.666 132.999 102.999s103.666 39.5 156.999 39.5c60.667 0 119.667 -11.333 177 -34l-32 -83c-24.667 18 -48.667 31.333 -72 40
s-52.666 13 -87.999 13c-32.667 0 -66.667 -8.83301 -102 -26.5s-68.666 -42.334 -99.999 -74.001s-57.166 -73 -77.499 -124s-30.5 -106.167 -30.5 -165.5c0 -60 15.667 -111.667 47 -155s76.333 -65 135 -65c31.333 0 59.333 3 84 9s42.834 11.833 54.501 17.5
s32.834 17.167 63.501 34.5l-9 -70c-41.333 -21.333 -75.333 -35.833 -102 -43.5s-61.334 -11.5 -104.001 -11.5c-81.333 0 -144.833 27 -190.5 81s-68.5 120.667 -68.5 200z" />
    <glyph glyph-name="ccircumflex" unicode="&#x109;" horiz-adv-x="444" 
d="M206 510c96 86.667 144.999 131 146.999 133c6.66699 4.66699 13.667 7 21 7h48l95 -141h-61l-74 99l-64 -56c-24.667 -21.333 -39.667 -33.833 -45 -37.5s-11.666 -5.5 -18.999 -5.5h-9zM76.999 170c0 72 27.3271 138.5 81.9941 199.5s118.667 91.5 192 91.5
c34.667 0 61.334 -3 80.001 -9s41.334 -17.667 68.001 -35l-25 -66c-30 21.333 -52.667 34.333 -68 39c-17.333 4.66699 -39 7 -65 7c-38 0 -71.667 -12.5 -101 -37.5s-50.666 -54 -63.999 -87s-20 -65.833 -20 -98.5c0 -35.333 9.33301 -64.333 28 -87
s45.334 -34 80.001 -34c24 0 47.667 3.33301 71 10s40.333 12.667 51 18s26.334 14 47.001 26l-8 -67c-60 -34 -118 -51 -174 -51c-53.333 0 -95.666 17.167 -126.999 51.5s-47 77.5 -47 129.5z" />
    <glyph glyph-name="Cdotaccent" unicode="&#x10a;" horiz-adv-x="639" 
d="M511 766l19 89h89l-18 -89h-90zM130 259c0 56 11.498 111.835 34.498 167.502s53.167 104.667 90.5 147s81.666 76.666 132.999 102.999s103.666 39.5 156.999 39.5c60.667 0 119.667 -11.333 177 -34l-32 -83c-24.667 18 -48.667 31.333 -72 40s-52.666 13 -87.999 13
c-32.667 0 -66.667 -8.83301 -102 -26.5s-68.666 -42.334 -99.999 -74.001s-57.166 -73 -77.499 -124s-30.5 -106.167 -30.5 -165.5c0 -60 15.667 -111.667 47 -155s76.333 -65 135 -65c31.333 0 59.333 3 84 9s42.834 11.833 54.501 17.5s32.834 17.167 63.501 34.5l-9 -70
c-41.333 -21.333 -75.333 -35.833 -102 -43.5s-61.334 -11.5 -104.001 -11.5c-81.333 0 -144.833 27 -190.5 81s-68.5 120.667 -68.5 200z" />
    <glyph glyph-name="cdotaccent" unicode="&#x10b;" horiz-adv-x="444" 
d="M333 590l19 89h89l-18 -89h-90zM77 170c0 72 27.3271 138.5 81.9941 199.5s118.667 91.5 192 91.5c34.667 0 61.334 -3 80.001 -9s41.334 -17.667 68.001 -35l-25 -66c-30 21.333 -52.667 34.333 -68 39c-17.333 4.66699 -39 7 -65 7c-38 0 -71.667 -12.5 -101 -37.5
s-50.666 -54 -63.999 -87s-20 -65.833 -20 -98.5c0 -35.333 9.33301 -64.333 28 -87s45.334 -34 80.001 -34c24 0 47.667 3.33301 71 10s40.333 12.667 51 18s26.334 14 47.001 26l-8 -67c-60 -34 -118 -51 -174 -51c-53.333 0 -95.666 17.167 -126.999 51.5
s-47 77.5 -47 129.5z" />
    <glyph glyph-name="Ccaron" unicode="&#x10c;" horiz-adv-x="639" 
d="M418 889h62l73 -111l121 111h62l-158 -162h-71zM130 259c0 56 11.498 111.835 34.498 167.502s53.167 104.667 90.5 147s81.666 76.666 132.999 102.999s103.666 39.5 156.999 39.5c60.667 0 119.667 -11.333 177 -34l-32 -83c-24.667 18 -48.667 31.333 -72 40
s-52.666 13 -87.999 13c-32.667 0 -66.667 -8.83301 -102 -26.5s-68.666 -42.334 -99.999 -74.001s-57.166 -73 -77.499 -124s-30.5 -106.167 -30.5 -165.5c0 -60 15.667 -111.667 47 -155s76.333 -65 135 -65c31.333 0 59.333 3 84 9s42.834 11.833 54.501 17.5
s32.834 17.167 63.501 34.5l-9 -70c-41.333 -21.333 -75.333 -35.833 -102 -43.5s-61.334 -11.5 -104.001 -11.5c-81.333 0 -144.833 27 -190.5 81s-68.5 120.667 -68.5 200z" />
    <glyph glyph-name="ccaron" unicode="&#x10d;" horiz-adv-x="444" 
d="M224 639h60.999l86 -68l31 18l25 15l19 11.5c6 3.66699 10.833 6.5 14.5 8.5l11 6c3.66699 2 6.5 3.5 8.5 4.5s3.83301 1.83301 5.5 2.5s3.33398 1.16699 5.00098 1.5s3 0.5 4 0.5h4.5h10l38 -1c-94.667 -58.667 -144.667 -89 -150 -91c-3.33301 -1.33301 -8 -2 -14 -2
h-49zM76.999 170c0 72 27.3271 138.5 81.9941 199.5s118.667 91.5 192 91.5c34.667 0 61.334 -3 80.001 -9s41.334 -17.667 68.001 -35l-25 -66c-30 21.333 -52.667 34.333 -68 39c-17.333 4.66699 -39 7 -65 7c-38 0 -71.667 -12.5 -101 -37.5s-50.666 -54 -63.999 -87
s-20 -65.833 -20 -98.5c0 -35.333 9.33301 -64.333 28 -87s45.334 -34 80.001 -34c24 0 47.667 3.33301 71 10s40.333 12.667 51 18s26.334 14 47.001 26l-8 -67c-60 -34 -118 -51 -174 -51c-53.333 0 -95.666 17.167 -126.999 51.5s-47 77.5 -47 129.5z" />
    <glyph glyph-name="Dcaron" unicode="&#x10e;" horiz-adv-x="722" 
d="M315 889h62l73 -111l121 111h62l-158 -162h-71zM95 0l147 693.999h251c39.333 0 74.333 -6 105 -18s55.167 -27.167 73.5 -45.5s33.5 -39.833 45.5 -64.5s20.167 -48.5 24.5 -71.5s6.5 -46.167 6.5 -69.5c0 -103.333 -35.5 -196.666 -106.5 -279.999
s-152.5 -131 -244.5 -143c-12 -1.33301 -30.333 -2 -55 -2h-247zM194 55.999l153 0.000976562c85.333 0 159 36.667 221 110s93 160.666 93 261.999c0 24.667 -3 48.167 -9 70.5s-16 44.5 -30 66.5s-34.5 39.667 -61.5 53s-59.5 20 -97.5 20h-145z" />
    <glyph glyph-name="dcaron" unicode="&#x10f;" horiz-adv-x="633" 
d="M75 155c0 76.667 24.001 145.833 72.001 207.5s101.667 92.5 161 92.5c51.333 0 96.666 -18 135.999 -54l68 321h75l-153 -722h-79l11 52c-54 -42 -108 -63 -162 -63c-42 0 -74 16.833 -96 50.5s-33 72.167 -33 115.5zM154.001 166.999c0 -41.333 10.835 -71 32.502 -89
s46.167 -27 73.5 -27c37.333 0 69.666 14.333 96.999 43c12 12 19.167 20 21.5 24s4.5 11.333 6.5 22c27.333 128 41 194 41 198c0 4.66699 -2.5 11 -7.5 19s-14.333 16.167 -28 24.5s-29.834 12.5 -48.501 12.5c-50 0 -93.833 -21.833 -131.5 -65.5
s-56.5 -97.5 -56.5 -161.5zM616.003 596.999l43.002 83h-25l17 84h84l-6.5 -31c-2.33301 -11.333 -4 -19 -5 -23s-2 -9 -3 -15s-2.33301 -10.167 -4 -12.5s-3.33398 -5.5 -5.00098 -9.5s-4.16699 -8.16699 -7.5 -12.5l-10.5 -14l-15.5 -21
c-6.66699 -9 -13.334 -18.5 -20.001 -28.5h-42z" />
    <glyph glyph-name="Dcroat" unicode="&#x110;" horiz-adv-x="722" 
d="M66 311l12 58.999h96l68 324h251c39.333 0 74.333 -6 105 -18s55.167 -27.167 73.5 -45.5s33.5 -39.833 45.5 -64.5s20.167 -48.5 24.5 -71.5s6.5 -46.167 6.5 -69.5c0 -103.333 -35.5 -196.666 -106.5 -279.999s-152.5 -131 -244.5 -143c-12 -1.33301 -30.333 -2 -55 -2
h-247l66 311h-95zM194 55.999l153 -0.000976562c86 0 159.833 37 221.5 111s92.5 160.667 92.5 260c0 24.667 -3 48.334 -9 71.001s-16 45 -30 67s-34.5 39.667 -61.5 53s-59.5 20 -97.5 20h-145l-57 -268h178l-12 -59h-179z" />
    <glyph glyph-name="dcroat" unicode="&#x111;" horiz-adv-x="517" 
d="M75 155c0 76.667 24.001 145.833 72.001 207.5s101.667 92.5 161 92.5c51.333 0 96.666 -18 135.999 -54l31 150h-191l13 59h191l24 112h75l-24 -112h101l-12 -59h-101l-117 -551h-79l11 52c-54 -42 -108 -63 -162 -63c-42 0 -74 16.833 -96 50.5s-33 72.167 -33 115.5z
M154.001 166.999c0 -41.333 10.835 -71 32.502 -89s46.167 -27 73.5 -27c37.333 0 69.666 14.333 96.999 43c12 12 19.167 20 21.5 24s4.5 11.333 6.5 22c27.333 128 41 194 41 198c0 4.66699 -2.5 11 -7.5 19s-14.333 16.167 -28 24.5s-29.834 12.5 -48.501 12.5
c-50 0 -93.833 -21.833 -131.5 -65.5s-56.5 -97.5 -56.5 -161.5z" />
    <glyph glyph-name="Emacron" unicode="&#x112;" horiz-adv-x="597" 
d="M295 773l14 64h388l-14 -64h-388zM94 0l147 691h447l-14 -66h-57l-25 1h-240l-35 1l-51 -237h330l-12 -61h-330l-1 -1l-54 -258h85l24 1h194l22 1h46l-15 -72h-461z" />
    <glyph glyph-name="emacron" unicode="&#x113;" horiz-adv-x="444" 
d="M173 552l14 64h360l-14 -64h-360zM76 171c0 73.333 26.6689 140.003 80.002 200.003s112.666 90 177.999 90c37.333 0 69.666 -11.833 96.999 -35.5s41 -63.167 41 -118.5c0 -20 -3.66699 -49 -11 -87h-310c-0.666992 -6.66699 -1.33398 -12.334 -2.00098 -17.001
s-1.16699 -7.83398 -1.5 -9.50098s-0.5 -3.33398 -0.5 -5.00098v-6.5c0 -38 10.833 -69.5 32.5 -94.5s49.5 -37.5 83.5 -37.5c52.667 0 107.334 18.667 164.001 56l-8 -66c-57.333 -34 -113.666 -51 -168.999 -51c-52.667 0 -94.834 17.333 -126.501 52s-47.5 78 -47.5 130z
M168.002 275.003l248 0.000976562v13c0 41.333 -9.66699 70.166 -29 86.499s-41 24.5 -65 24.5c-32 0 -62.167 -12.333 -90.5 -37s-49.5 -53.667 -63.5 -87z" />
    <glyph glyph-name="Ebreve" unicode="&#x114;" horiz-adv-x="597" 
d="M341 856c0 5.33301 0.499023 12.001 1.49902 20.001s1.5 12.333 1.5 13h62c-1.33301 -4 -2 -9.66699 -2 -17c0 -24 8.66699 -43 26 -57s38.666 -21 63.999 -21c28.667 0 55.5 8.83301 80.5 26.5s40.833 40.5 47.5 68.5h61
c-9.33301 -46.667 -34.166 -85.334 -74.499 -116.001s-83.166 -46 -128.499 -46c-39.333 0 -72.333 12 -99 36s-40 55 -40 93zM93.999 0.000976562l147 691h447l-14 -66h-57l-25 1h-240l-35 1l-51 -237h330l-12 -61h-330l-1 -1l-54 -258h85l24 1h194l22 1h46l-15 -72h-461z
" />
    <glyph glyph-name="ebreve" unicode="&#x115;" horiz-adv-x="444" 
d="M200 612c0 16.667 0.666016 25.6689 1.99902 27.002h62c-0.666992 -2.66699 -1 -6.33398 -1 -11.001c0 -22 9.5 -38 28.5 -48s40.833 -15 65.5 -15c24 0 48.333 5.5 73 16.5s41 29.833 49 56.5v1h62c-12 -43.333 -37.167 -77.5 -75.5 -102.5
s-79.166 -37.833 -122.499 -38.5h-1c-40.667 0 -74.5 10.667 -101.5 32s-40.5 48.666 -40.5 81.999zM75.999 171.002c0 73.333 26.6689 140.003 80.002 200.003s112.666 90 177.999 90c37.333 0 69.666 -11.833 96.999 -35.5s41 -63.167 41 -118.5
c0 -20 -3.66699 -49 -11 -87h-310c-0.666992 -6.66699 -1.33398 -12.334 -2.00098 -17.001s-1.16699 -7.83398 -1.5 -9.50098s-0.5 -3.33398 -0.5 -5.00098v-6.5c0 -38 10.833 -69.5 32.5 -94.5s49.5 -37.5 83.5 -37.5c52.667 0 107.334 18.667 164.001 56l-8 -66
c-57.333 -34 -113.666 -51 -168.999 -51c-52.667 0 -94.834 17.333 -126.501 52s-47.5 78 -47.5 130zM168.001 275.005l248 0.000976562v13c0 41.333 -9.66699 70.166 -29 86.499s-41 24.5 -65 24.5c-32 0 -62.167 -12.333 -90.5 -37s-49.5 -53.667 -63.5 -87z" />
    <glyph glyph-name="Edotaccent" unicode="&#x116;" horiz-adv-x="597" 
d="M443 766l19 89h89l-18 -89h-90zM94 0l147 691h447l-14 -66h-57l-25 1h-240l-35 1l-51 -237h330l-12 -61h-330l-1 -1l-54 -258h85l24 1h194l22 1h46l-15 -72h-461z" />
    <glyph glyph-name="edotaccent" unicode="&#x117;" horiz-adv-x="444" 
d="M316 590l19 89h89l-18 -89h-90zM76 171c0 73.333 26.6689 140.003 80.002 200.003s112.666 90 177.999 90c37.333 0 69.666 -11.833 96.999 -35.5s41 -63.167 41 -118.5c0 -20 -3.66699 -49 -11 -87h-310c-0.666992 -6.66699 -1.33398 -12.334 -2.00098 -17.001
s-1.16699 -7.83398 -1.5 -9.50098s-0.5 -3.33398 -0.5 -5.00098v-6.5c0 -38 10.833 -69.5 32.5 -94.5s49.5 -37.5 83.5 -37.5c52.667 0 107.334 18.667 164.001 56l-8 -66c-57.333 -34 -113.666 -51 -168.999 -51c-52.667 0 -94.834 17.333 -126.501 52s-47.5 78 -47.5 130z
M168.002 275.003l248 0.000976562v13c0 41.333 -9.66699 70.166 -29 86.499s-41 24.5 -65 24.5c-32 0 -62.167 -12.333 -90.5 -37s-49.5 -53.667 -63.5 -87z" />
    <glyph glyph-name="Eogonek" unicode="&#x118;" horiz-adv-x="597" 
d="M94 0l146.999 691h447l-14 -66h-57l-25 1h-240l-35 1l-51 -237h330l-12 -61h-330l-1 -1l-54 -258h85l24 1h194l22 1h46l-15 -72h-52c-18.667 -0 -44.167 -13.667 -76.5 -41s-48.5 -52 -48.5 -74c0 -21.333 14 -32 42 -32c16 0 40 4.66699 72 14l3 -59
c-39.333 -16.667 -73.666 -25 -102.999 -25c-23.333 0 -42.5 6 -57.5 18s-22.5 29 -22.5 51c0 18 6.5 39 19.5 63s35.833 47 68.5 69l26 16h-332z" />
    <glyph glyph-name="eogonek" unicode="&#x119;" horiz-adv-x="444" 
d="M76 172c0 72.667 26.6689 139.004 80.002 199.004s113 90 179 90c16 0 31.5 -2.33301 46.5 -7s29.667 -12.334 44 -23.001s25.666 -26.667 33.999 -48s12.5 -46.333 12.5 -75c0 -16 -3.66699 -45.333 -11 -88h-310c-0.666992 -6.66699 -1.33398 -12.334 -2.00098 -17.001
s-1.16699 -7.83398 -1.5 -9.50098s-0.5 -3.33398 -0.5 -5.00098v-6.5c0 -38 10.833 -69.5 32.5 -94.5s49.5 -37.5 83.5 -37.5c52.667 0 107.334 18.667 164.001 56l-8 -66c-14.667 -8 -34.667 -18.167 -60 -30.5s-44.833 -23 -58.5 -32s-27.167 -20.833 -40.5 -35.5
c-20 -21.333 -30 -40.333 -30 -57c0 -21.333 14.667 -32 44 -32c10.667 0 34.667 4.66699 72 14l3 -59c-41.333 -16.667 -75.333 -25 -102 -25c-28.667 0 -49.334 7 -62.001 21s-19 29.667 -19 47c0 50 32 96.333 96 139c-1.33301 0 -3.33301 -0.166992 -6 -0.5
s-4.66699 -0.5 -6 -0.5c-54 0 -96.5 17.5 -127.5 52.5s-46.5 78.5 -46.5 130.5zM168.002 275.004l248 0.000976562v13c0 41.333 -9.66699 70.166 -29 86.499s-41 24.5 -65 24.5c-32 0 -62.167 -12.333 -90.5 -37s-49.5 -53.667 -63.5 -87z" />
    <glyph glyph-name="Ecaron" unicode="&#x11a;" horiz-adv-x="597" 
d="M329 889h62l73 -111l121 111h62l-158 -162h-71zM94 0l147 691h447l-14 -66h-57l-25 1h-240l-35 1l-51 -237h330l-12 -61h-330l-1 -1l-54 -258h85l24 1h194l22 1h46l-15 -72h-461z" />
    <glyph glyph-name="ecaron" unicode="&#x11b;" horiz-adv-x="444" 
d="M210 639h60.999l86 -68l31 18l25 15l19 11.5c6 3.66699 10.833 6.5 14.5 8.5l11 6c3.66699 2 6.5 3.5 8.5 4.5s3.83301 1.83301 5.5 2.5s3.33398 1.16699 5.00098 1.5s3 0.5 4 0.5h4.5h10l38 -1c-94.667 -58.667 -144.667 -89 -150 -91c-3.33301 -1.33301 -8 -2 -14 -2
h-49zM75.999 171c0 73.333 26.6689 140.003 80.002 200.003s112.666 90 177.999 90c37.333 0 69.666 -11.833 96.999 -35.5s41 -63.167 41 -118.5c0 -20 -3.66699 -49 -11 -87h-310c-0.666992 -6.66699 -1.33398 -12.334 -2.00098 -17.001s-1.16699 -7.83398 -1.5 -9.50098
s-0.5 -3.33398 -0.5 -5.00098v-6.5c0 -38 10.833 -69.5 32.5 -94.5s49.5 -37.5 83.5 -37.5c52.667 0 107.334 18.667 164.001 56l-8 -66c-57.333 -34 -113.666 -51 -168.999 -51c-52.667 0 -94.834 17.333 -126.501 52s-47.5 78 -47.5 130zM168.001 275.003l248 0.000976562
v13c0 41.333 -9.66699 70.166 -29 86.499s-41 24.5 -65 24.5c-32 0 -62.167 -12.333 -90.5 -37s-49.5 -53.667 -63.5 -87z" />
    <glyph glyph-name="Gcircumflex" unicode="&#x11c;" horiz-adv-x="667" 
d="M390 727l162 173h76l73 -173h-61l-68 122l-120 -122h-62zM130 259c0 76 19.166 149.333 57.499 220s89.666 127.834 153.999 171.501s131.833 65.5 202.5 65.5c69.333 0 132 -16 188 -48l-32 -83c-1.33301 1.33301 -5.16602 4.66602 -11.499 9.99902s-10.833 9 -13.5 11
l-15 11c-7.33301 5.33301 -13.5 9.16602 -18.5 11.499s-11.833 5.33301 -20.5 9s-17.167 6.33398 -25.5 8.00098s-18.166 3.16699 -29.499 4.5s-23.333 2 -36 2c-52.667 0 -103.334 -19.167 -152.001 -57.5s-87.167 -87.5 -115.5 -147.5s-42.5 -121 -42.5 -183
c0 -60 15.5 -112 46.5 -156s75.833 -66 134.5 -66c44.667 0 89 7 133 21l37 174h-132l13 62h210l-57 -272c-69.333 -32.667 -141.666 -49 -216.999 -49c-80 0 -143 27 -189 81s-69 120.667 -69 200z" />
    <glyph glyph-name="gcircumflex" unicode="&#x11d;" 
d="M174 510c96 86.667 144.999 131 146.999 133c6.66699 4.66699 13.667 7 21 7h48l95 -141h-61l-74 99l-64 -56c-24.667 -21.333 -39.667 -33.833 -45 -37.5s-11.666 -5.5 -18.999 -5.5h-9zM9.99902 -89c0 23.333 8.49707 46.165 25.4971 68.498s37.833 39.833 62.5 52.5
c-8 17.333 -12 34 -12 50c0 38.667 16.667 75.334 50 110.001v1c-10.667 20.667 -16 42.334 -16 65.001c0 51.333 20.333 97 61 137s86.334 60 137.001 60c34.667 0 65.334 -11.333 92.001 -34l-2 4c56.667 20 111 30 163 30l-2 -63c-4.66699 0 -11 0.333008 -19 1
s-15.167 1.16699 -21.5 1.5s-12.5 0.5 -18.5 0.5c-6.66699 0 -32 -1.33301 -76 -4l-6 8c12.667 -24 19 -48.333 19 -73c0 -49.333 -20 -94.5 -60 -135.5s-86 -61.5 -138 -61.5c-30.667 0 -59 10 -85 30c-13.333 -18.667 -20 -35.334 -20 -50.001
c0 -26.667 15.333 -40 46 -40h80c16 0 28.333 -0.333008 37 -1s21.834 -2 39.501 -4s31.834 -5.33301 42.501 -10s22 -10.834 34 -18.501s21 -18.167 27 -31.5s9 -28.666 9 -45.999c0 -33.333 -13 -62.833 -39 -88.5s-57.833 -44.667 -95.5 -57
s-76.834 -18.5 -117.501 -18.5c-55.333 0 -102 10.833 -140 32.5s-57 49.834 -57 84.501zM80.9961 -81.001c0 -20 13.333 -36.332 40 -48.999s59 -19 97 -19c43.333 0 82.333 8.16699 117 24.5s52 37.166 52 62.499c0 39.333 -45.667 59 -137 59h-74
c-28.667 0 -51.667 -8.5 -69 -25.5s-26 -34.5 -26 -52.5zM189.996 260c0 -26.667 7.16699 -45.5 21.5 -56.5s30.833 -16.5 49.5 -16.5c36 0 64.333 14.5 85 43.5s31 60.5 31 94.5c0 22.667 -6.16699 40.5 -18.5 53.5s-29.833 19.5 -52.5 19.5c-36 0 -64.333 -14.5 -85 -43.5
s-31 -60.5 -31 -94.5z" />
    <glyph glyph-name="Gbreve" unicode="&#x11e;" horiz-adv-x="667" 
d="M130 259c0 76 19.166 149.333 57.499 220s89.666 127.834 153.999 171.501s131.833 65.5 202.5 65.5c69.333 0 132 -16 188 -48l-32 -83c-1.33301 1.33301 -5.16602 4.66602 -11.499 9.99902s-10.833 9 -13.5 11l-15 11c-7.33301 5.33301 -13.5 9.16602 -18.5 11.499
s-11.833 5.33301 -20.5 9s-17.167 6.33398 -25.5 8.00098s-18.166 3.16699 -29.499 4.5s-23.333 2 -36 2c-52.667 0 -103.334 -19.167 -152.001 -57.5s-87.167 -87.5 -115.5 -147.5s-42.5 -121 -42.5 -183c0 -60 15.5 -112 46.5 -156s75.833 -66 134.5 -66
c44.667 0 89 7 133 21l37 174h-132l13 62h210l-57 -272c-69.333 -32.667 -141.666 -49 -216.999 -49c-80 0 -143 27 -189 81s-69 120.667 -69 200zM403.999 856c0 2.66699 1.00098 13.666 3.00098 32.999h62l-1 -6c-0.666992 -4 -1 -7.66699 -1 -11
c0 -24 8.66699 -43 26 -57s38.666 -21 63.999 -21c28 0 54.5 8.66699 79.5 26s41.167 40.333 48.5 69h61c-10 -46 -35 -84.5 -75 -115.5s-82.667 -46.5 -128 -46.5c-40 0 -73.167 11.833 -99.5 35.5s-39.5 54.834 -39.5 93.501z" />
    <glyph glyph-name="gbreve" unicode="&#x11f;" 
d="M214 612c0 16.667 0.666016 25.6689 1.99902 27.002h62c-0.666992 -2.66699 -1 -6.33398 -1 -11.001c0 -22 9.5 -38 28.5 -48s40.833 -15 65.5 -15c24 0 48.333 5.5 73 16.5s41 29.833 49 56.5v1h62c-12 -43.333 -37.167 -77.5 -75.5 -102.5
s-79.166 -37.833 -122.499 -38.5h-1c-40.667 0 -74.5 10.667 -101.5 32s-40.5 48.666 -40.5 81.999zM9.99902 -88.998c0 23.333 8.49707 46.165 25.4971 68.498s37.833 39.833 62.5 52.5c-8 17.333 -12 34 -12 50c0 38.667 16.667 75.334 50 110.001v1
c-10.667 20.667 -16 42.334 -16 65.001c0 51.333 20.333 97 61 137s86.334 60 137.001 60c34.667 0 65.334 -11.333 92.001 -34l-2 4c56.667 20 111 30 163 30l-2 -63c-4.66699 0 -11 0.333008 -19 1s-15.167 1.16699 -21.5 1.5s-12.5 0.5 -18.5 0.5
c-6.66699 0 -32 -1.33301 -76 -4l-6 8c12.667 -24 19 -48.333 19 -73c0 -49.333 -20 -94.5 -60 -135.5s-86 -61.5 -138 -61.5c-30.667 0 -59 10 -85 30c-13.333 -18.667 -20 -35.334 -20 -50.001c0 -26.667 15.333 -40 46 -40h80c16 0 28.333 -0.333008 37 -1
s21.834 -2 39.501 -4s31.834 -5.33301 42.501 -10s22 -10.834 34 -18.501s21 -18.167 27 -31.5s9 -28.666 9 -45.999c0 -33.333 -13 -62.833 -39 -88.5s-57.833 -44.667 -95.5 -57s-76.834 -18.5 -117.501 -18.5c-55.333 0 -102 10.833 -140 32.5s-57 49.834 -57 84.501z
M80.9961 -80.999c0 -20 13.333 -36.332 40 -48.999s59 -19 97 -19c43.333 0 82.333 8.16699 117 24.5s52 37.166 52 62.499c0 39.333 -45.667 59 -137 59h-74c-28.667 0 -51.667 -8.5 -69 -25.5s-26 -34.5 -26 -52.5zM189.996 260.002c0 -26.667 7.16699 -45.5 21.5 -56.5
s30.833 -16.5 49.5 -16.5c36 0 64.333 14.5 85 43.5s31 60.5 31 94.5c0 22.667 -6.16699 40.5 -18.5 53.5s-29.833 19.5 -52.5 19.5c-36 0 -64.333 -14.5 -85 -43.5s-31 -60.5 -31 -94.5z" />
    <glyph glyph-name="Gdotaccent" unicode="&#x120;" horiz-adv-x="667" 
d="M509 766l19 89h89l-18 -89h-90zM130 259c0 76 19.166 149.333 57.499 220s89.666 127.834 153.999 171.501s131.833 65.5 202.5 65.5c69.333 0 132 -16 188 -48l-32 -83c-1.33301 1.33301 -5.16602 4.66602 -11.499 9.99902s-10.833 9 -13.5 11l-15 11
c-7.33301 5.33301 -13.5 9.16602 -18.5 11.499s-11.833 5.33301 -20.5 9s-17.167 6.33398 -25.5 8.00098s-18.166 3.16699 -29.499 4.5s-23.333 2 -36 2c-52.667 0 -103.334 -19.167 -152.001 -57.5s-87.167 -87.5 -115.5 -147.5s-42.5 -121 -42.5 -183
c0 -60 15.5 -112 46.5 -156s75.833 -66 134.5 -66c44.667 0 89 7 133 21l37 174h-132l13 62h210l-57 -272c-69.333 -32.667 -141.666 -49 -216.999 -49c-80 0 -143 27 -189 81s-69 120.667 -69 200z" />
    <glyph glyph-name="gdotaccent" unicode="&#x121;" 
d="M301 590l19 89h89l-18 -89h-90zM10 -89c0 23.333 8.49707 46.165 25.4971 68.498s37.833 39.833 62.5 52.5c-8 17.333 -12 34 -12 50c0 38.667 16.667 75.334 50 110.001v1c-10.667 20.667 -16 42.334 -16 65.001c0 51.333 20.333 97 61 137s86.334 60 137.001 60
c34.667 0 65.334 -11.333 92.001 -34l-2 4c56.667 20 111 30 163 30l-2 -63c-4.66699 0 -11 0.333008 -19 1s-15.167 1.16699 -21.5 1.5s-12.5 0.5 -18.5 0.5c-6.66699 0 -32 -1.33301 -76 -4l-6 8c12.667 -24 19 -48.333 19 -73c0 -49.333 -20 -94.5 -60 -135.5
s-86 -61.5 -138 -61.5c-30.667 0 -59 10 -85 30c-13.333 -18.667 -20 -35.334 -20 -50.001c0 -26.667 15.333 -40 46 -40h80c16 0 28.333 -0.333008 37 -1s21.834 -2 39.501 -4s31.834 -5.33301 42.501 -10s22 -10.834 34 -18.501s21 -18.167 27 -31.5s9 -28.666 9 -45.999
c0 -33.333 -13 -62.833 -39 -88.5s-57.833 -44.667 -95.5 -57s-76.834 -18.5 -117.501 -18.5c-55.333 0 -102 10.833 -140 32.5s-57 49.834 -57 84.501zM80.9971 -81.001c0 -20 13.333 -36.332 40 -48.999s59 -19 97 -19c43.333 0 82.333 8.16699 117 24.5
s52 37.166 52 62.499c0 39.333 -45.667 59 -137 59h-74c-28.667 0 -51.667 -8.5 -69 -25.5s-26 -34.5 -26 -52.5zM189.997 260c0 -26.667 7.16699 -45.5 21.5 -56.5s30.833 -16.5 49.5 -16.5c36 0 64.333 14.5 85 43.5s31 60.5 31 94.5c0 22.667 -6.16699 40.5 -18.5 53.5
s-29.833 19.5 -52.5 19.5c-36 0 -64.333 -14.5 -85 -43.5s-31 -60.5 -31 -94.5z" />
    <glyph glyph-name="Hcircumflex" unicode="&#x124;" horiz-adv-x="708" 
d="M352 727l162 173h76l73 -173h-61l-68 122l-120 -122h-62zM94 0l147 694h90l-64 -302h340l64 302h90l-147 -694h-90l70 330h-340l-70 -330h-90z" />
    <glyph glyph-name="hcircumflex" unicode="&#x125;" horiz-adv-x="517" 
d="M266 771c96 86.667 144.999 131 146.999 133c6.66699 4.66699 13.667 7 21 7h48l95 -141h-61l-74 99l-64 -56c-24.667 -21.333 -39.667 -33.833 -45 -37.5s-11.666 -5.5 -18.999 -5.5h-9zM79.999 0l152.999 722h76l-72 -338c48.667 47.333 101.334 71 158.001 71
c74 0 111 -33.333 111 -100c0 -14.667 -2.66699 -36 -8 -64l-62 -291h-78l61 289c3.33301 14.667 5 27.667 5 39c0 44 -27 66 -81 66c-23.333 0 -44.5 -8.16699 -63.5 -24.5s-33 -33 -42 -50s-16.167 -34.5 -21.5 -52.5c-4 -12.667 -23.333 -101.667 -58 -267h-78z" />
    <glyph glyph-name="uni0127" unicode="&#x127;" horiz-adv-x="564" 
d="M125 511l11.999 59.001h111l27 125h75l-26 -125h141l-12 -59h-142l-26 -127c48.667 47.333 101 71 157 71c74.667 0 112 -33.333 112 -100c0 -14 -2.66699 -35 -8 -63l-62 -292h-79l62 288c3.33301 14.667 5 28 5 40c0 44 -27 66 -81 66c-18 0 -34.667 -4.5 -50 -13.5
s-28.166 -20.667 -38.499 -35s-18.5 -27.833 -24.5 -40.5s-11 -25.334 -15 -38.001s-23.333 -101.667 -58 -267h-78l109 511h-111z" />
    <glyph glyph-name="Itilde" unicode="&#x128;" horiz-adv-x="278" 
d="M94 0l147 694h90l-147 -694h-90zM134 805c8 33.333 23.999 60.832 47.999 82.499s48.667 32.5 74 32.5c18.667 0 40.334 -8.83301 65.001 -26.5s44.334 -26.5 59.001 -26.5c5.33301 0 10.333 1 15 3s8.66699 4.5 12 7.5s6.33301 6.33301 9 10
s4.83398 7.33398 6.50098 11.001s3 7.16699 4 10.5s1.83301 6 2.5 8l1 3h62c-8 -34 -23.833 -61.5 -47.5 -82.5s-48.5 -31.5 -74.5 -31.5c-18.667 0 -40.334 8.83301 -65.001 26.5s-44.334 26.5 -59.001 26.5c-24 0 -41 -18 -51 -54h-61z" />
    <glyph glyph-name="itilde" unicode="&#x129;" horiz-adv-x="239" 
d="M60 555c8 33.333 23.999 60.832 47.999 82.499s48.667 32.5 74 32.5c18.667 0 40.334 -8.83301 65.001 -26.5s44.334 -26.5 59.001 -26.5c5.33301 0 10.333 1 15 3s8.66699 4.5 12 7.5s6.33301 6.33301 9 10s4.83398 7.33398 6.50098 11.001s3 7.16699 4 10.5
s1.83301 6 2.5 8l1 3h62c-8 -34 -23.833 -61.5 -47.5 -82.5s-48.5 -31.5 -74.5 -31.5c-18.667 0 -40.334 8.83301 -65.001 26.5s-44.334 26.5 -59.001 26.5c-24 0 -41 -18 -51 -54h-61zM79.999 -0.000976562l95 445h75l-95 -445h-75z" />
    <glyph glyph-name="Imacron" unicode="&#x12a;" horiz-adv-x="278" 
d="M119 766l14 64h360l-14 -64h-360zM94 0l147 694h90l-147 -694h-90z" />
    <glyph glyph-name="Ibreve" unicode="&#x12c;" horiz-adv-x="278" 
d="M154 856c0 5.33301 0.499023 12.001 1.49902 20.001s1.5 12.333 1.5 13h62c-1.33301 -4 -2 -9.66699 -2 -17c0 -24 8.66699 -43 26 -57s38.666 -21 63.999 -21c28.667 0 55.5 8.83301 80.5 26.5s40.833 40.5 47.5 68.5h61
c-9.33301 -46.667 -34.166 -85.334 -74.499 -116.001s-83.166 -46 -128.499 -46c-39.333 0 -72.333 12 -99 36s-40 55 -40 93zM93.999 0.000976562l147 694h90l-147 -694h-90z" />
    <glyph glyph-name="Idotaccent" unicode="&#x130;" horiz-adv-x="278" 
d="M259 777l19 89h89l-18 -89h-90zM94 0l147 694h90l-147 -694h-90z" />
    <glyph glyph-name="dotlessi" unicode="&#x131;" horiz-adv-x="239" 
d="M81 0l95 445h75l-95 -445h-75z" />
    <glyph glyph-name="Jcircumflex" unicode="&#x134;" horiz-adv-x="472" 
d="M343 727l162 173h76l73 -173h-61l-68 122l-120 -122h-62zM45 20l30 75c30.667 -36.667 69.334 -55 116.001 -55c8.66699 0 17.667 0.833008 27 2.5s20.666 4.66699 33.999 9s26 11.833 38 22.5s22 23.667 30 39c5.33301 11.333 12.333 36.333 21 75l107 506h87l-109 -514
c-4.66699 -24 -8.5 -41.333 -11.5 -52s-9.33301 -25.667 -19 -45s-22.167 -36 -37.5 -50c-39.333 -36.667 -89.333 -55 -150 -55c-58 0 -112.333 14 -163 42z" />
    <glyph glyph-name="Lacute" unicode="&#x139;" horiz-adv-x="542" 
d="M94 0l147 694h90l-134 -629h196l25 1h95l-14 -66h-405zM171 760c112 58 170.334 87.667 175.001 89c3.33301 0.666992 7.66602 1 12.999 1h99l-175 -79l-24 -10l-15 -1h-73z" />
    <glyph glyph-name="lacute" unicode="&#x13a;" horiz-adv-x="239" 
d="M81 0l153 722h76l-154 -722h-75zM196 760c112 58 170.334 87.667 175.001 89c3.33301 0.666992 7.66602 1 12.999 1h99l-175 -79l-25 -10l-15 -1h-72z" />
    <glyph glyph-name="Lcaron" unicode="&#x13d;" horiz-adv-x="542" 
d="M94 0l147 694h90l-134 -629h196l25 1h95l-14 -66h-405zM464 611l43 83h-25l18 84h84l-18 -84l-60 -83h-42z" />
    <glyph glyph-name="lcaron" unicode="&#x13e;" horiz-adv-x="355" 
d="M81 0l153 722h76l-154 -722h-75zM339 597l43.002 83h-26l18 84h84l-6.5 -31c-2.33301 -11.333 -4 -19 -5 -23s-2 -9 -3 -15s-2.33301 -10.167 -4 -12.5s-3.33398 -5.5 -5.00098 -9.5s-4.16699 -8.16699 -7.5 -12.5l-10.5 -14l-15.5 -21
c-6.66699 -9 -13.334 -18.5 -20.001 -28.5h-42z" />
    <glyph glyph-name="Lslash" unicode="&#x141;" horiz-adv-x="625" 
d="M136 278l48.999 35c34.667 24.667 54.834 39.5 60.501 44.5s9.16699 10.5 10.5 16.5c0.666992 2 1 3.33301 1 4l67 316h90l-54 -254l150 107l29 -47l-196 -141l-63 -294h196l25 1h95l-14 -66h-405l60 282l-71 -51z" />
    <glyph glyph-name="lslash" unicode="&#x142;" horiz-adv-x="324" 
d="M88 286l113 81l75 355h76l-62 -290l84 60l28 -45l-129 -93l-75 -354h-75l61 290l-68 -49z" />
    <glyph glyph-name="Nacute" unicode="&#x143;" horiz-adv-x="708" 
d="M95 0l147 694h126l168 -577l12 -47l132 624h78l-147 -694h-125l-133 452c-22.667 76 -38.667 133.333 -48 172l-132 -624h-78zM389 760l106 55c34 17.333 54.5 27.5 61.5 30.5s13.833 4.5 20.5 4.5h98l-175 -79l-24 -10l-15 -1h-72z" />
    <glyph glyph-name="nacute" unicode="&#x144;" horiz-adv-x="517" 
d="M280 510l160 130h46l33 -1l-177 -129h-62zM80 0l95 450h73l-14 -70c50 50 103.667 75 161 75c74 0 111 -33.333 111 -100c0 -14.667 -2.66699 -36 -8 -64l-62 -291h-78l61 289c3.33301 14.667 5 27.667 5 39c0 44 -27 66 -81 66c-23.333 0 -44.5 -8.16699 -63.5 -24.5
s-33 -33 -42 -50s-16.167 -34.5 -21.5 -52.5c-4 -12.667 -23.333 -101.667 -58 -267h-78z" />
    <glyph glyph-name="Ncaron" unicode="&#x147;" horiz-adv-x="708" 
d="M383 889h62l73 -111l121 111h62l-158 -162h-71zM95 0l147 694h126l168 -577l12 -47l132 624h78l-147 -694h-125l-133 452c-22.667 76 -38.667 133.333 -48 172l-132 -624h-78z" />
    <glyph glyph-name="ncaron" unicode="&#x148;" horiz-adv-x="517" 
d="M202 639h60.999l86 -68l31 18l25 15l19 11.5c6 3.66699 10.833 6.5 14.5 8.5l11 6c3.66699 2 6.5 3.5 8.5 4.5s3.83301 1.83301 5.5 2.5s3.33398 1.16699 5.00098 1.5s3 0.5 4 0.5h4.5h10l38 -1c-94.667 -58.667 -144.667 -89 -150 -91c-3.33301 -1.33301 -8 -2 -14 -2
h-49zM79.999 0l95 450h73l-14 -70c50 50 103.667 75 161 75c74 0 111 -33.333 111 -100c0 -14.667 -2.66699 -36 -8 -64l-62 -291h-78l61 289c3.33301 14.667 5 27.667 5 39c0 44 -27 66 -81 66c-23.333 0 -44.5 -8.16699 -63.5 -24.5s-33 -33 -42 -50
s-16.167 -34.5 -21.5 -52.5c-4 -12.667 -23.333 -101.667 -58 -267h-78z" />
    <glyph glyph-name="Eng" unicode="&#x14a;" horiz-adv-x="750" 
d="M94 0l147.002 693.999h90l-6 -27c72 58.667 149.333 88 232 88c69.333 0 127 -21.5 173 -64.5s69 -98.833 69 -167.5c0 -21.333 -3.33301 -47.333 -10 -78l-58 -273c0 -0.666992 -0.333008 -2.33398 -1 -5.00098c-2.66699 -12.667 -5.33398 -24 -8.00098 -34
s-8.66699 -25.5 -18 -46.5s-20.166 -38.667 -32.499 -53s-29.833 -27.166 -52.5 -38.499s-48.334 -17 -77.001 -17c-49.333 0 -94.333 14 -135 42l29 75c18.667 -36.667 48 -55 88 -55c59.333 0 97.666 41 114.999 123c0.666992 2 1 3.33301 1 4l60 282
c5.33301 22.667 8 42.334 8 59.001c0 50 -16.5 90.667 -49.5 122s-74.167 47 -123.5 47c-57.333 0 -110.5 -19.833 -159.5 -59.5s-78.167 -81.167 -87.5 -124.5l-104 -493h-90z" />
    <glyph glyph-name="eng" unicode="&#x14b;" horiz-adv-x="517" 
d="M80 0l95.002 450h73l-14 -70c50 50 103.667 75 161 75c74 0 111 -33.333 111 -100c0 -14.667 -2.66699 -36 -8 -64l-62 -291h-1c-14 -61.333 -37.167 -110.833 -69.5 -148.5s-65.833 -56.5 -100.5 -56.5c-42 0 -79.667 11.333 -113 34v1l40 60
c20.667 -21.333 41 -32 61 -32s38.667 8.66699 56 26s29.666 37.666 36.999 60.999c1.33301 4.66699 5.66602 23 12.999 55h-1l61 290c3.33301 14.667 5 27.334 5 38.001c0 44 -27 66 -81 66c-23.333 0 -44.5 -8.16699 -63.5 -24.5s-33 -33 -42 -50
s-16.167 -34.5 -21.5 -52.5c-4 -12.667 -23.333 -101.667 -58 -267h-78z" />
    <glyph glyph-name="Omacron" unicode="&#x14c;" horiz-adv-x="736" 
d="M338 773l14 64h388l-14 -64h-388zM119 255c0 76.667 19.333 150.831 58 222.498s89 129.334 151 173.001s126 65.5 192 65.5c72 0 130.5 -26.333 175.5 -79s67.5 -119.667 67.5 -201c0 -78 -19.5 -152.667 -58.5 -224s-89.5 -128.166 -151.5 -170.499
s-125.333 -63.5 -190 -63.5c-72 0 -130.667 26.167 -176 78.5s-68 118.5 -68 198.5zM211 261.997c0 -66 15.167 -119.002 45.5 -159.002s70.5 -60 120.5 -60c51.333 0 100.5 20.833 147.5 62.5s84 93.334 111 155.001s40.5 122.5 40.5 182.5c0 64 -16 114.833 -48 152.5
s-72.667 56.5 -122 56.5c-74.667 0 -142.5 -38.667 -203.5 -116s-91.5 -168.666 -91.5 -273.999z" />
    <glyph glyph-name="omacron" unicode="&#x14d;" 
d="M186 552l14 64h360l-14 -64h-360zM71 169c0 73.333 28.501 140.332 85.501 200.999s120.5 91 190.5 91c51.333 0 93.166 -17.667 125.499 -53s48.5 -80 48.5 -134c0 -75.333 -28.333 -141.666 -85 -198.999s-119.667 -86 -189 -86c-52 0 -94.333 17 -127 51
s-49 77 -49 129zM151.001 175.999c0 -44 11.168 -75.5 33.501 -94.5s47.833 -28.5 76.5 -28.5c52 0 95.667 24 131 72s53 99.667 53 155c0 36.667 -10 65.667 -30 87s-47 32 -81 32c-52.667 0 -96.334 -22.667 -131.001 -68s-52 -97 -52 -155z" />
    <glyph glyph-name="Obreve" unicode="&#x14e;" horiz-adv-x="736" 
d="M384 856c0 5.33301 0.499023 12.001 1.49902 20.001s1.5 12.333 1.5 13h62c-1.33301 -4 -2 -9.66699 -2 -17c0 -24 8.66699 -43 26 -57s38.666 -21 63.999 -21c28.667 0 55.5 8.83301 80.5 26.5s40.833 40.5 47.5 68.5h61
c-9.33301 -46.667 -34.166 -85.334 -74.499 -116.001s-83.166 -46 -128.499 -46c-39.333 0 -72.333 12 -99 36s-40 55 -40 93zM118.999 255.001c0 76.667 19.333 150.831 58 222.498s89 129.334 151 173.001s126 65.5 192 65.5c72 0 130.5 -26.333 175.5 -79
s67.5 -119.667 67.5 -201c0 -78 -19.5 -152.667 -58.5 -224s-89.5 -128.166 -151.5 -170.499s-125.333 -63.5 -190 -63.5c-72 0 -130.667 26.167 -176 78.5s-68 118.5 -68 198.5zM210.999 261.998c0 -66 15.167 -119.002 45.5 -159.002s70.5 -60 120.5 -60
c51.333 0 100.5 20.833 147.5 62.5s84 93.334 111 155.001s40.5 122.5 40.5 182.5c0 64 -16 114.833 -48 152.5s-72.667 56.5 -122 56.5c-74.667 0 -142.5 -38.667 -203.5 -116s-91.5 -168.666 -91.5 -273.999z" />
    <glyph glyph-name="obreve" unicode="&#x14f;" 
d="M213 612c0 16.667 0.666016 25.6689 1.99902 27.002h62c-0.666992 -2.66699 -1 -6.33398 -1 -11.001c0 -22 9.5 -38 28.5 -48s40.833 -15 65.5 -15c24 0 48.333 5.5 73 16.5s41 29.833 49 56.5v1h62c-12 -43.333 -37.167 -77.5 -75.5 -102.5
s-79.166 -37.833 -122.499 -38.5h-1c-40.667 0 -74.5 10.667 -101.5 32s-40.5 48.666 -40.5 81.999zM70.999 169.002c0 73.333 28.501 140.332 85.501 200.999s120.5 91 190.5 91c51.333 0 93.166 -17.667 125.499 -53s48.5 -80 48.5 -134
c0 -75.333 -28.333 -141.666 -85 -198.999s-119.667 -86 -189 -86c-52 0 -94.333 17 -127 51s-49 77 -49 129zM151 176.001c0 -44 11.168 -75.5 33.501 -94.5s47.833 -28.5 76.5 -28.5c52 0 95.667 24 131 72s53 99.667 53 155c0 36.667 -10 65.667 -30 87s-47 32 -81 32
c-52.667 0 -96.334 -22.667 -131.001 -68s-52 -97 -52 -155z" />
    <glyph glyph-name="Ohungarumlaut" unicode="&#x150;" horiz-adv-x="736" 
d="M119 255c0 76.667 19.333 150.831 58 222.498s89 129.334 151 173.001s126 65.5 192 65.5c72 0 130.5 -26.333 175.5 -79s67.5 -119.667 67.5 -201c0 -78 -19.5 -152.667 -58.5 -224s-89.5 -128.166 -151.5 -170.499s-125.333 -63.5 -190 -63.5
c-72 0 -130.667 26.167 -176 78.5s-68 118.5 -68 198.5zM211 261.997c0 -66 15.167 -119.002 45.5 -159.002s70.5 -60 120.5 -60c51.333 0 100.5 20.833 147.5 62.5s84 93.334 111 155.001s40.5 122.5 40.5 182.5c0 64 -16 114.833 -48 152.5s-72.667 56.5 -122 56.5
c-74.667 0 -142.5 -38.667 -203.5 -116s-91.5 -168.666 -91.5 -273.999zM362 759.995l106 55c34 17.333 54.5 27.5 61.5 30.5s13.833 4.5 20.5 4.5h99l-175 -79l-25 -10l-15 -1h-72zM529 759.995l106 55c34 17.333 54.5 27.5 61.5 30.5s13.833 4.5 20.5 4.5h98l-175 -79
l-24 -10l-15 -1h-72z" />
    <glyph glyph-name="ohungarumlaut" unicode="&#x151;" 
d="M382 510l160 130h46l33 -1l-177 -129h-62zM216 510l160 130h46l33 -1l-177 -129h-62zM71 169c0 73.333 28.501 140.332 85.501 200.999s120.5 91 190.5 91c51.333 0 93.166 -17.667 125.499 -53s48.5 -80 48.5 -134c0 -75.333 -28.333 -141.666 -85 -198.999
s-119.667 -86 -189 -86c-52 0 -94.333 17 -127 51s-49 77 -49 129zM151.001 175.999c0 -44 11.168 -75.5 33.501 -94.5s47.833 -28.5 76.5 -28.5c52 0 95.667 24 131 72s53 99.667 53 155c0 36.667 -10 65.667 -30 87s-47 32 -81 32c-52.667 0 -96.334 -22.667 -131.001 -68
s-52 -97 -52 -155z" />
    <glyph glyph-name="OE" unicode="&#x152;" horiz-adv-x="972" 
d="M91 260c0 76.667 20.333 150.499 61 221.499s93.5 127.833 158.5 170.5s131.5 64 199.5 64c18.667 0 43.834 -3.5 75.501 -10.5s55.167 -10.833 70.5 -11.5h406l-13 -66h-58l-24 1h-239l-36 1l-51 -238h330l-13 -62h-330l-55 -260h86l24 1h193l22 1h46l-15 -72h-401
c-26 0 -57 -3.66699 -93 -11s-63.667 -11 -83 -11c-74.667 0 -136.834 26.333 -186.501 79s-74.5 120.334 -74.5 203.001zM181 272.999c0 -68.667 17.3301 -124.83 51.9971 -168.497s80.334 -65.5 137.001 -65.5c38 0 68.333 9.33301 91 28c8 10 14.333 19.167 19 27.5
s10.5 23.166 17.5 44.499s14.167 50 21.5 86l53 249c10.667 50 16 87 16 111c0 13.333 -2 24.666 -6 33.999s-8.5 16.166 -13.5 20.499s-12.167 7.83301 -21.5 10.5s-17.166 4.16699 -23.499 4.5s-15.166 0.5 -26.499 0.5c-80 0 -152.667 -38.167 -218 -114.5
s-98 -165.5 -98 -267.5z" />
    <glyph glyph-name="oe" unicode="&#x153;" horiz-adv-x="778" 
d="M72 171c0 74 27.6641 140.83 82.9971 200.497s117 89.5 185 89.5c36 0 67.167 -9.16699 93.5 -27.5s45.833 -42.166 58.5 -71.499h1c22.667 28 50.834 51.5 84.501 70.5s68.167 28.5 103.5 28.5c32.667 0 61.834 -11 87.501 -33s38.5 -60.333 38.5 -115
c0 -24 -3.66699 -55 -11 -93h-294c-2.66699 -17.333 -4 -30.666 -4 -39.999c0 -35.333 10 -65.666 30 -90.999s47.667 -38 83 -38c46.667 0 96.334 18.333 149.001 55l-8 -66c-52 -34 -103.667 -51 -155 -51c-38.667 0 -72 9.33301 -100 28s-48.333 43 -61 73
c-60 -67.333 -125.667 -101 -197 -101c-49.333 0 -89.5 17.167 -120.5 51.5s-46.5 77.833 -46.5 130.5zM145.997 174.997c0 -44 11 -75.667 33 -95s46.667 -29 74 -29c50.667 0 93.167 24.5 127.5 73.5s51.5 101.5 51.5 157.5c0 36 -9.66699 64.5 -29 85.5
s-45 31.5 -77 31.5c-48 0 -90 -21.5 -126 -64.5s-54 -96.167 -54 -159.5zM518.997 274.997h230v18c0 39.333 -8 66.833 -24 82.5s-34.667 23.5 -56 23.5c-29.333 0 -58 -12 -86 -36s-49.333 -53.333 -64 -88z" />
    <glyph glyph-name="Racute" unicode="&#x154;" horiz-adv-x="646" 
d="M95 0l147 694h229c80 0 138.167 -16.5 174.5 -49.5s54.5 -69.167 54.5 -108.5c0 -44 -18.833 -85.5 -56.5 -124.5s-89.5 -67.5 -155.5 -85.5l129 -326h-90l-120 316h-158l-67 -316h-87zM262 378h133c76 0 132.167 16 168.5 48s54.5 66.667 54.5 104
c0 31.333 -12.333 56.5 -37 75.5s-58 29.833 -100 32.5h-163zM344 760c112.667 58 171.334 87.667 176.001 89c3.33301 0.666992 7.66602 1 12.999 1h98l-175 -79l-25 -10l-15 -1h-72z" />
    <glyph glyph-name="racute" unicode="&#x155;" horiz-adv-x="342" 
d="M196 510l160 130h46l33 -1l-177 -129h-62zM81 0l95.002 449.999h70l-19 -90c58 61.333 123.333 93 196 95l-14 -67c-46.667 -1.33301 -87.334 -15.666 -122.001 -42.999s-59.334 -59 -74.001 -95c-4.66699 -12 -23.667 -95.333 -57 -250h-75z" />
    <glyph glyph-name="Rcaron" unicode="&#x158;" horiz-adv-x="646" 
d="M336 889h62l73 -111l121 111h62l-158 -162h-71zM95 0l147 694h229c80 0 138.167 -16.5 174.5 -49.5s54.5 -69.167 54.5 -108.5c0 -44 -18.833 -85.5 -56.5 -124.5s-89.5 -67.5 -155.5 -85.5l129 -326h-90l-120 316h-158l-67 -316h-87zM262 378h133
c76 0 132.167 16 168.5 48s54.5 66.667 54.5 104c0 31.333 -12.333 56.5 -37 75.5s-58 29.833 -100 32.5h-163z" />
    <glyph glyph-name="rcaron" unicode="&#x159;" horiz-adv-x="342" 
d="M196 639h60.999l86 -68l31 18l25 15l19 11.5c6 3.66699 10.833 6.5 14.5 8.5l11 6c3.66699 2 6.5 3.5 8.5 4.5s3.83301 1.83301 5.5 2.5s3.33398 1.16699 5.00098 1.5s3 0.5 4 0.5h4.5h10l38 -1c-94.667 -58.667 -144.667 -89 -150 -91c-3.33301 -1.33301 -8 -2 -14 -2
h-49zM80.999 0l95.002 449.999h70l-19 -90c58 61.333 123.333 93 196 95l-14 -67c-46.667 -1.33301 -87.334 -15.666 -122.001 -42.999s-59.334 -59 -74.001 -95c-4.66699 -12 -23.667 -95.333 -57 -250h-75z" />
    <glyph glyph-name="Sacute" unicode="&#x15a;" horiz-adv-x="555" 
d="M54 47l33.0029 83.0029c51.333 -55.333 116.666 -83 195.999 -83c49.333 0 91.166 16.5 125.499 49.5s51.5 68.833 51.5 107.5c0 43.333 -20.333 74.666 -61 93.999c-10.667 4.66699 -32.834 11.167 -66.501 19.5s-57.167 15.166 -70.5 20.499
c-26 10.667 -49.333 28 -70 52s-31 55.333 -31 94c0 57.333 26.667 110.333 80 159s117 73 191 73c35.333 0 65.833 -3.5 91.5 -10.5s53.167 -19.5 82.5 -37.5l-32 -83c-25.333 24 -47 39.667 -65 47c-26 11.333 -56.333 17 -91 17c-48.667 0 -89.667 -14.667 -123 -44
s-50 -61 -50 -95c0 -24 7.5 -43.5 22.5 -58.5s31.5 -25.333 49.5 -31s40.5 -11.834 67.5 -18.501s46.833 -12.667 59.5 -18c28 -12.667 51.667 -32 71 -58s29 -57.667 29 -95c0 -64.667 -27.667 -123 -83 -175s-119 -78 -191 -78c-82 0 -154 23 -216 69zM299.003 760.003
l106 55c34 17.333 54.5 27.5 61.5 30.5s13.833 4.5 20.5 4.5h99l-175 -79l-25 -10l-15 -1h-72z" />
    <glyph glyph-name="sacute" unicode="&#x15b;" horiz-adv-x="383" 
d="M35 34l25.9961 68.0029c15.333 -10.667 26.333 -18 33 -22s21.334 -9.66699 44.001 -17s46 -11 70 -11c22.667 0 41.834 3 57.501 9s26.834 14 33.501 24s11.167 18.667 13.5 26s3.5 14.333 3.5 21c0 18 -7 31.5 -21 40.5s-35.167 16.333 -63.5 22
s-45.166 9.5 -50.499 11.5c-22 7.33301 -40.833 19.666 -56.5 36.999s-23.5 38.333 -23.5 63c0 20 6.33301 43.667 19 71s34.667 48.666 66 63.999c26.667 13.333 63.667 20 111 20c48 0 94 -10.333 138 -31l-25 -66c-16.667 9.33301 -29.834 16 -39.501 20
s-23 7.83301 -40 11.5s-36.5 5.5 -58.5 5.5c-20 0 -36.833 -2.66699 -50.5 -8s-23.5 -12.333 -29.5 -21s-10.167 -16.5 -12.5 -23.5s-3.5 -13.5 -3.5 -19.5c0 -18 7.16699 -31.167 21.5 -39.5s35.333 -15 63 -20s46.5 -9.5 56.5 -13.5c18 -7.33301 34.667 -19.333 50 -36
s23 -38.334 23 -65.001c0 -9.33301 -1 -19.5 -3 -30.5s-6.83301 -25 -14.5 -42s-18 -32 -31 -45s-32.167 -24.333 -57.5 -34s-55 -14.5 -89 -14.5c-59.333 0 -112.666 15 -159.999 45zM218.996 510.003l160 130h46l33 -1l-177 -129h-62z" />
    <glyph glyph-name="Scircumflex" unicode="&#x15c;" horiz-adv-x="555" 
d="M279 727l162 173h76l73 -173h-61l-68 122l-120 -122h-62zM54 47l33.0029 83.0029c51.333 -55.333 116.666 -83 195.999 -83c49.333 0 91.166 16.5 125.499 49.5s51.5 68.833 51.5 107.5c0 43.333 -20.333 74.666 -61 93.999c-10.667 4.66699 -32.834 11.167 -66.501 19.5
s-57.167 15.166 -70.5 20.499c-26 10.667 -49.333 28 -70 52s-31 55.333 -31 94c0 57.333 26.667 110.333 80 159s117 73 191 73c35.333 0 65.833 -3.5 91.5 -10.5s53.167 -19.5 82.5 -37.5l-32 -83c-25.333 24 -47 39.667 -65 47c-26 11.333 -56.333 17 -91 17
c-48.667 0 -89.667 -14.667 -123 -44s-50 -61 -50 -95c0 -24 7.5 -43.5 22.5 -58.5s31.5 -25.333 49.5 -31s40.5 -11.834 67.5 -18.501s46.833 -12.667 59.5 -18c28 -12.667 51.667 -32 71 -58s29 -57.667 29 -95c0 -64.667 -27.667 -123 -83 -175s-119 -78 -191 -78
c-82 0 -154 23 -216 69z" />
    <glyph glyph-name="scircumflex" unicode="&#x15d;" horiz-adv-x="383" 
d="M154 510c96 86.667 144.999 131 146.999 133c6.66699 4.66699 13.667 7 21 7h48l95 -141h-61l-74 99l-64 -56c-24.667 -21.333 -39.667 -33.833 -45 -37.5s-11.666 -5.5 -18.999 -5.5h-9zM34.999 34l26.001 68.0059l32 -21c7.33301 -4.66699 22.333 -10.667 45 -18
s46 -11 70 -11c37.333 0 64.666 8.66699 81.999 26s26 35.333 26 54c0 18 -7 31.5 -21 40.5s-35.167 16.333 -63.5 22s-45.166 9.5 -50.499 11.5c-22 7.33301 -40.833 19.666 -56.5 36.999s-23.5 38.333 -23.5 63c0 14 2.83301 29 8.5 45s15.167 32.667 28.5 50
s34 31.666 62 42.999s61 17 99 17c46 0 91.333 -10.333 136 -31l-25 -66c-16 8.66699 -28.5 15 -37.5 19s-22.333 8 -40 12s-37.167 6 -58.5 6c-35.333 0 -60.5 -7.83301 -75.5 -23.5s-22.5 -31.834 -22.5 -48.501c0 -18 7.16699 -31.167 21.5 -39.5
s35.166 -14.833 62.499 -19.5s46.333 -9.33398 57 -14.001c17.333 -7.33301 33.833 -19.5 49.5 -36.5s23.5 -38.833 23.5 -65.5c0 -16.667 -3.33301 -33.834 -10 -51.501s-17 -35.334 -31 -53.001s-34.5 -32.167 -61.5 -43.5s-58.167 -17 -93.5 -17
c-58.667 0 -111.667 15 -159 45z" />
    <glyph glyph-name="Scedilla" unicode="&#x15e;" horiz-adv-x="555" 
d="M54 47l33.002 83.0029c52.667 -55.333 118 -83 196 -83c49.333 0 91.166 16.5 125.499 49.5s51.5 68.833 51.5 107.5c0 43.333 -20.333 74.666 -61 93.999c-10.667 4.66699 -32.834 11.167 -66.501 19.5s-57.167 15.166 -70.5 20.499c-26 10.667 -49.333 28 -70 52
s-31 55.333 -31 94c0 57.333 26.667 110.333 80 159s117 73 191 73c35.333 0 65.833 -3.5 91.5 -10.5s53.167 -19.5 82.5 -37.5l-32 -83c-25.333 24 -47 39.667 -65 47c-26 11.333 -56.333 17 -91 17c-48.667 0 -89.667 -14.667 -123 -44s-50 -61 -50 -95
c0 -24 7.5 -43.5 22.5 -58.5s31.5 -25.333 49.5 -31s40.5 -11.834 67.5 -18.501s46.833 -12.667 59.5 -18c28 -12.667 51.667 -32 71 -58s29 -57.667 29 -95c0 -64.667 -27.5 -123 -82.5 -175s-118.833 -78 -191.5 -78c-82 0 -154 23 -216 69zM132.002 -191.997l110 169h61
l-101 -169h-70z" />
    <glyph glyph-name="scedilla" unicode="&#x15f;" horiz-adv-x="383" 
d="M35 34l25.9961 68.001c15.333 -10.667 26.333 -18 33 -22s21.334 -9.66699 44.001 -17s46 -11 70 -11c22.667 0 41.834 3 57.501 9s26.834 13.833 33.501 23.5s11.167 18.334 13.5 26.001s3.5 14.834 3.5 21.501c0 18 -7 31.5 -21 40.5s-35.167 16.333 -63.5 22
s-45.166 9.5 -50.499 11.5c-22 7.33301 -40.833 19.666 -56.5 36.999s-23.5 38.333 -23.5 63c0 20 6.33301 43.667 19 71s34.667 48.666 66 63.999c26.667 13.333 63.667 20 111 20c48 0 94 -10.333 138 -31l-25 -66c-16.667 9.33301 -29.834 16 -39.501 20
s-23 7.83301 -40 11.5s-36.5 5.5 -58.5 5.5c-20 0 -36.833 -2.66699 -50.5 -8s-23.5 -12.333 -29.5 -21s-10.167 -16.5 -12.5 -23.5s-3.5 -13.5 -3.5 -19.5c0 -18 7.16699 -31.167 21.5 -39.5s35.333 -15 63 -20s46.5 -9.5 56.5 -13.5c18 -7.33301 34.667 -19.333 50 -36
s23 -38.334 23 -65.001c0 -9.33301 -1 -19.5 -3 -30.5s-6.83301 -25 -14.5 -42s-18 -32 -31 -45s-32.167 -24.333 -57.5 -34s-55 -14.5 -89 -14.5c-59.333 0 -112.666 15 -159.999 45zM51.9961 -191.999l110 169h61l-101 -169h-70z" />
    <glyph glyph-name="Scaron" unicode="&#x160;" horiz-adv-x="555" 
d="M307 889h62l73 -111l121 111h62l-158 -162h-71zM54 47l33.0029 83.0029c51.333 -55.333 116.666 -83 195.999 -83c49.333 0 91.166 16.5 125.499 49.5s51.5 68.833 51.5 107.5c0 43.333 -20.333 74.666 -61 93.999c-10.667 4.66699 -32.834 11.167 -66.501 19.5
s-57.167 15.166 -70.5 20.499c-26 10.667 -49.333 28 -70 52s-31 55.333 -31 94c0 57.333 26.667 110.333 80 159s117 73 191 73c35.333 0 65.833 -3.5 91.5 -10.5s53.167 -19.5 82.5 -37.5l-32 -83c-25.333 24 -47 39.667 -65 47c-26 11.333 -56.333 17 -91 17
c-48.667 0 -89.667 -14.667 -123 -44s-50 -61 -50 -95c0 -24 7.5 -43.5 22.5 -58.5s31.5 -25.333 49.5 -31s40.5 -11.834 67.5 -18.501s46.833 -12.667 59.5 -18c28 -12.667 51.667 -32 71 -58s29 -57.667 29 -95c0 -64.667 -27.667 -123 -83 -175s-119 -78 -191 -78
c-82 0 -154 23 -216 69z" />
    <glyph glyph-name="scaron" unicode="&#x161;" horiz-adv-x="383" 
d="M35 34l25.998 68.0029c46 -33.333 95 -50 147 -50c22.667 0 41.834 3 57.501 9s26.834 14 33.501 24s11.167 18.667 13.5 26s3.5 14.666 3.5 21.999c0 6.66699 -1.16699 12.834 -3.5 18.501s-5.66602 10.5 -9.99902 14.5s-8.66602 7.5 -12.999 10.5
s-9.66602 5.5 -15.999 7.5s-11.333 3.5 -15 4.5s-8.16699 2.16699 -13.5 3.5l-8 1c-0.666992 0 -4.83398 0.833008 -12.501 2.5s-14 3 -19 4s-12.167 3 -21.5 6s-17.333 6.16699 -24 9.5s-14 8 -22 14s-14.5 12.5 -19.5 19.5s-9.16699 15.5 -12.5 25.5s-5 20.667 -5 32
c0 18.667 4.83301 39 14.5 61s22.834 40 39.501 54c30.667 26.667 78 40 142 40c48 0 94 -10.333 138 -31l-25 -66c-16.667 9.33301 -29.834 16 -39.501 20s-23 7.83301 -40 11.5s-36.5 5.5 -58.5 5.5c-20 0 -37.167 -2.83301 -51.5 -8.5s-24.333 -12.834 -30 -21.501
s-9.66699 -16.334 -12 -23.001s-3.5 -13 -3.5 -19c0 -18 7.16699 -31 21.5 -39s35.166 -14.333 62.499 -19s46.333 -9.33398 57 -14.001c20.667 -8.66699 38.167 -21.834 52.5 -39.501s21.5 -38.834 21.5 -63.501c0 -9.33301 -0.833008 -19.166 -2.5 -29.499
s-6.33398 -24.166 -14.001 -41.499s-18 -32.5 -31 -45.5s-32.167 -24.333 -57.5 -34s-55 -14.5 -89 -14.5c-60 0 -113.667 15 -161 45zM162.998 639.003h60.999l86 -68l31 18l25 15l19 11.5c6 3.66699 10.833 6.5 14.5 8.5l11 6c3.66699 2 6.5 3.5 8.5 4.5
s3.83301 1.83301 5.5 2.5s3.33398 1.16699 5.00098 1.5s3 0.5 4 0.5h4.5h10l38 -1c-94.667 -58.667 -144.667 -89 -150 -91c-3.33301 -1.33301 -8 -2 -14 -2h-49z" />
    <glyph glyph-name="Tcommaaccent" unicode="&#x162;" horiz-adv-x="680" 
d="M168 623l14 66h608l-14 -66h-142l-116 1l-133 -624h-90l133 624l-118 -1h-142zM195 -192l110 169h61l-101 -169h-70z" />
    <glyph glyph-name="tcommaaccent" unicode="&#x163;" horiz-adv-x="361" 
d="M76 -192l110 169h61l-101 -169h-70zM100 386l12 59h87l27 126h70l-27 -126h141l-13 -59h-141c-38.667 -184.667 -58 -281 -58 -289c0 -29.333 13.333 -44 40 -44c28 0 60 11 96 33l4 -59c-51.333 -25.333 -104 -38 -158 -38c-40.667 0 -61 24 -61 72v9.5
c0 2.33301 0.166992 5 0.5 8s0.833008 6.66699 1.5 11s1.5 9 2.5 14l4 20.5l5.5 27.5c2 9.66699 4.83301 22.667 8.5 39l11 50l13.5 65l17 80.5h-83z" />
    <glyph glyph-name="Tcaron" unicode="&#x164;" horiz-adv-x="680" 
d="M370 889h62l73 -111l121 111h62l-158 -162h-71zM168 623l14 66h608l-14 -66h-142l-116 1l-133 -624h-90l133 624l-118 -1h-142z" />
    <glyph glyph-name="tcaron" unicode="&#x165;" horiz-adv-x="361" 
d="M100 386l13.001 59.001h86l27 126h70l-27 -126h141l-12 -59h-142c-38.667 -184.667 -58 -281 -58 -289c0 -29.333 13.333 -44 40 -44c28.667 0 61 11 97 33l3 -59c-51.333 -25.333 -104 -38 -158 -38c-40.667 0 -61 24 -61 72c0 4.66699 0.166992 8.5 0.5 11.5
s0.666016 6.5 0.999023 10.5s1.16602 9.66699 2.49902 17s2.83301 15.166 4.5 23.499s4.33398 20.833 8.00098 37.5l11.5 52.5l16 74.5l21 98h-84zM377.001 488.001l43.002 83h-25l18 84h83l-6.5 -31c-2.33301 -11.333 -4 -19 -5 -23s-2 -9 -3 -15
s-2.33301 -10.167 -4 -12.5s-3.33398 -5.5 -5.00098 -9.5s-4.16699 -8.16699 -7.5 -12.5l-10.5 -14l-15.5 -21c-6.66699 -9 -13.334 -18.5 -20.001 -28.5h-42z" />
    <glyph glyph-name="Utilde" unicode="&#x168;" horiz-adv-x="687" 
d="M137 179c0 20 8.33301 68.332 25 144.999l79 370h89l-87 -411c-11.333 -52.667 -17 -89.667 -17 -111c0 -42 11.667 -75.5 35 -100.5s54 -37.5 92 -37.5c42 0 82 15 120 45s65.333 71 82 123c5.33301 18.667 10.333 39 15 61l91 431h78l-92 -434
c-4.66699 -23.333 -9 -41.833 -13 -55.5s-12.833 -33.167 -26.5 -58.5s-30.834 -48.666 -51.501 -69.999c-63.333 -65.333 -135 -98 -215 -98c-59.333 0.666992 -108.166 19.5 -146.499 56.5s-57.5 85.167 -57.5 144.5zM341 804.999c8 33.333 23.8301 60.832 47.4971 82.499
s48.167 32.5 73.5 32.5c18.667 0 40.334 -8.83301 65.001 -26.5s44.334 -26.5 59.001 -26.5c5.33301 0 10.333 1 15 3s8.66699 4.5 12 7.5s6.33301 6.33301 9 10s4.83398 7.33398 6.50098 11.001s3.16699 7.16699 4.5 10.5s2.33301 6 3 8l1 3h61
c-8 -34 -23.833 -61.5 -47.5 -82.5s-48.167 -31.5 -73.5 -31.5c-18 0 -39.667 8.83301 -65 26.5s-45 26.5 -59 26.5c-24 0 -41 -18 -51 -54h-61z" />
    <glyph glyph-name="utilde" unicode="&#x169;" horiz-adv-x="517" 
d="M97 63c0 11.333 4.66797 39.002 14.001 83.002l63 299h78l-67 -319c-4.66699 -24.667 -7 -38.334 -7 -41.001c0 -16 6 -26.667 18 -32s29.333 -8 52 -8c35.333 0 64.5 8.66699 87.5 26s38.5 35.666 46.5 54.999c1.33301 3.33301 4.66602 16.333 9.99902 39l60 280h78
l-94 -445h-76l10 48c-54.667 -39.333 -117.667 -59 -189 -59c-56 0 -84 24.667 -84 74zM186.001 555.002c8 33.333 23.834 60.832 47.501 82.499s48.167 32.5 73.5 32.5c18 0 39.667 -8.83301 65 -26.5s45 -26.5 59 -26.5c5.33301 0 10.333 1 15 3s8.66699 4.5 12 7.5
s6.33301 6.33301 9 10s4.83398 7.33398 6.50098 11.001s3.16699 7.16699 4.5 10.5s2.33301 6 3 8l1 3h61c-8 -34 -23.833 -61.5 -47.5 -82.5s-48.167 -31.5 -73.5 -31.5c-18.667 0 -40.334 8.83301 -65.001 26.5s-44.334 26.5 -59.001 26.5c-24 0 -41 -18 -51 -54h-61z" />
    <glyph glyph-name="Umacron" unicode="&#x16a;" horiz-adv-x="687" 
d="M312 773l14 64h388l-14 -64h-388zM137 179c0 20 8.33301 68.332 25 144.999l79 370h89l-87 -411c-11.333 -52.667 -17 -89.667 -17 -111c0 -42 11.667 -75.5 35 -100.5s54 -37.5 92 -37.5c42 0 82 15 120 45s65.333 71 82 123c5.33301 18.667 10.333 39 15 61l91 431h78
l-92 -434c-4.66699 -23.333 -9 -41.833 -13 -55.5s-12.833 -33.167 -26.5 -58.5s-30.834 -48.666 -51.501 -69.999c-63.333 -65.333 -135 -98 -215 -98c-59.333 0.666992 -108.166 19.5 -146.499 56.5s-57.5 85.167 -57.5 144.5z" />
    <glyph glyph-name="umacron" unicode="&#x16b;" horiz-adv-x="517" 
d="M194 552l14 64h360l-14 -64h-360zM97 63c0 11.333 4.66797 39.002 14.001 83.002l63 299h78l-67 -319c-4.66699 -24.667 -7 -38.334 -7 -41.001c0 -16 6 -26.667 18 -32s29.333 -8 52 -8c35.333 0 64.5 8.66699 87.5 26s38.5 35.666 46.5 54.999
c1.33301 3.33301 4.66602 16.333 9.99902 39l60 280h78l-94 -445h-76l10 48c-54.667 -39.333 -117.667 -59 -189 -59c-56 0 -84 24.667 -84 74z" />
    <glyph glyph-name="Ubreve" unicode="&#x16c;" horiz-adv-x="687" 
d="M358 856c0 5.33301 0.499023 12.001 1.49902 20.001s1.5 12.333 1.5 13h62c-1.33301 -4 -2 -9.66699 -2 -17c0 -24 8.66699 -43 26 -57s38.666 -21 63.999 -21c28.667 0 55.5 8.83301 80.5 26.5s40.833 40.5 47.5 68.5h61
c-9.33301 -46.667 -34.166 -85.334 -74.499 -116.001s-83.166 -46 -128.499 -46c-39.333 0 -72.333 12 -99 36s-40 55 -40 93zM136.999 179.001c0 20 8.33301 68.332 25 144.999l79 370h89l-87 -411c-11.333 -52.667 -17 -89.667 -17 -111c0 -42 11.667 -75.5 35 -100.5
s54 -37.5 92 -37.5c42 0 82 15 120 45s65.333 71 82 123c5.33301 18.667 10.333 39 15 61l91 431h78l-92 -434c-4.66699 -23.333 -9 -41.833 -13 -55.5s-12.833 -33.167 -26.5 -58.5s-30.834 -48.666 -51.501 -69.999c-63.333 -65.333 -135 -98 -215 -98
c-59.333 0.666992 -108.166 19.5 -146.499 56.5s-57.5 85.167 -57.5 144.5z" />
    <glyph glyph-name="ubreve" unicode="&#x16d;" horiz-adv-x="517" 
d="M221 612c0 16.667 0.666016 25.6689 1.99902 27.002h62c-0.666992 -2.66699 -1 -6.33398 -1 -11.001c0 -22 9.5 -38 28.5 -48s40.833 -15 65.5 -15c24 0 48.333 5.5 73 16.5s41 29.833 49 56.5v1h62c-12 -43.333 -37.167 -77.5 -75.5 -102.5
s-79.166 -37.833 -122.499 -38.5h-1c-40.667 0 -74.5 10.667 -101.5 32s-40.5 48.666 -40.5 81.999zM96.999 63.002c0 11.333 4.66797 39.002 14.001 83.002l63 299h78l-67 -319c-4.66699 -24.667 -7 -38.334 -7 -41.001c0 -16 6 -26.667 18 -32s29.333 -8 52 -8
c35.333 0 64.5 8.66699 87.5 26s38.5 35.666 46.5 54.999c1.33301 3.33301 4.66602 16.333 9.99902 39l60 280h78l-94 -445h-76l10 48c-54.667 -39.333 -117.667 -59 -189 -59c-56 0 -84 24.667 -84 74z" />
    <glyph glyph-name="Uring" unicode="&#x16e;" horiz-adv-x="687" 
d="M397 754c0 34 14.001 65 42.001 93s59.667 42 95 42c26 0 47.5 -8.33301 64.5 -25s25.5 -38 25.5 -64c0 -34 -14 -64.833 -42 -92.5s-59.667 -41.5 -95 -41.5c-26.667 0 -48.334 8.33301 -65.001 25s-25 37.667 -25 63zM454.001 765c0 -25.333 15.333 -37.998 46 -37.998
c24 0 41.167 6.66699 51.5 20s15.5 27.666 15.5 42.999c0 25.333 -14.667 38 -44 38c-24 0 -41.5 -6.83301 -52.5 -20.5s-16.5 -27.834 -16.5 -42.501zM137.001 179.002c0 20 8.33301 68.332 25 144.999l79 370h89l-87 -411c-11.333 -52.667 -17 -89.667 -17 -111
c0 -42 11.667 -75.5 35 -100.5s54 -37.5 92 -37.5c42 0 82 15 120 45s65.333 71 82 123c5.33301 18.667 10.333 39 15 61l91 431h78l-92 -434c-4.66699 -23.333 -9 -41.833 -13 -55.5s-12.833 -33.167 -26.5 -58.5s-30.834 -48.666 -51.501 -69.999
c-63.333 -65.333 -135 -98 -215 -98c-59.333 0.666992 -108.166 19.5 -146.499 56.5s-57.5 85.167 -57.5 144.5z" />
    <glyph glyph-name="uring" unicode="&#x16f;" horiz-adv-x="517" 
d="M97 63c0 11.333 4.66797 39.002 14.001 83.002l63 299h78l-67 -319c-4.66699 -24.667 -7 -38.334 -7 -41.001c0 -16 6 -26.667 18 -32s29.333 -8 52 -8c35.333 0 64.5 8.66699 87.5 26s38.5 35.666 46.5 54.999c1.33301 3.33301 4.66602 16.333 9.99902 39l60 280h78
l-94 -445h-76l10 48c-54.667 -39.333 -117.667 -59 -189 -59c-56 0 -84 24.667 -84 74zM264.001 545.002c0 24 12.166 45.168 36.499 63.501s52.5 28.166 84.5 29.499h16c22.667 -1.33301 42.834 -7.5 60.501 -18.5s26.5 -27.5 26.5 -49.5s-11.5 -42.5 -34.5 -61.5
s-51.833 -29.5 -86.5 -31.5h-16c-22 1.33301 -42 7.5 -60 18.5s-27 27.5 -27 49.5zM320 546.003c0 -24.667 15.333 -37.001 46 -37.001c22 0 38.667 6.5 50 19.5s17 26.5 17 40.5c0 24.667 -15.667 37 -47 37c-22 0 -38.5 -6.66699 -49.5 -20s-16.5 -26.666 -16.5 -39.999z
" />
    <glyph glyph-name="Uhungarumlaut" unicode="&#x170;" horiz-adv-x="687" 
d="M137 179c0 20 8.33301 68.332 25 144.999l79 370h89l-87 -411c-11.333 -52.667 -17 -89.667 -17 -111c0 -42 11.667 -75.5 35 -100.5s54 -37.5 92 -37.5c42 0 82 15 120 45s65.333 71 82 123c5.33301 18.667 10.333 39 15 61l91 431h78l-92 -434
c-4.66699 -23.333 -9 -41.833 -13 -55.5s-12.833 -33.167 -26.5 -58.5s-30.834 -48.666 -51.501 -69.999c-63.333 -65.333 -135 -98 -215 -98c-59.333 0.666992 -108.166 19.5 -146.499 56.5s-57.5 85.167 -57.5 144.5zM337 759.999l106 55c34 17.333 54.5 27.5 61.5 30.5
s13.833 4.5 20.5 4.5h99l-175 -79l-25 -10l-15 -1h-72zM503 759.999c112.667 58 171.334 87.667 176.001 89c3.33301 0.666992 7.66602 1 12.999 1h98l-175 -79l-24 -10l-15 -1h-73z" />
    <glyph glyph-name="uhungarumlaut" unicode="&#x171;" horiz-adv-x="517" 
d="M391 510l160 130h46l33 -1l-177 -129h-62zM224 510l160 130h46l33 -1l-177 -129h-62zM97 63c0 11.333 4.66797 39.002 14.001 83.002l63 299h78l-67 -319c-4.66699 -24.667 -7 -38.334 -7 -41.001c0 -16 6 -26.667 18 -32s29.333 -8 52 -8c35.333 0 64.5 8.66699 87.5 26
s38.5 35.666 46.5 54.999c1.33301 3.33301 4.66602 16.333 9.99902 39l60 280h78l-94 -445h-76l10 48c-54.667 -39.333 -117.667 -59 -189 -59c-56 0 -84 24.667 -84 74z" />
    <glyph glyph-name="Wcircumflex" unicode="&#x174;" horiz-adv-x="944" 
d="M470 727l162 173h76l73 -173h-61l-68 122l-120 -122h-62zM161 694l87 0.00195312l29 -383l6 -120l2 -82l-2 -38c8.66699 33.333 43 109.666 103 228.999l197 394h81c26 -306.667 39 -503.334 39 -590.001c0 -8.66699 -0.333008 -20 -1 -34c6 26 42 104.667 108 236
l195 388h72l-351 -694h-87c-26 304 -39 499 -39 585l1 38l-14 -37l-81 -170l-208 -416h-81z" />
    <glyph glyph-name="wcircumflex" unicode="&#x175;" horiz-adv-x="683" 
d="M294 510c96 86.667 144.999 131 146.999 133c6.66699 4.66699 13.667 7 21 7h48l95 -141h-61l-74 99l-64 -56c-24.667 -21.333 -39.667 -33.833 -45 -37.5s-11.666 -5.5 -18.999 -5.5h-9zM107.999 445l76 -0.000976562l20 -224l5 -89l1 -40l-2 -41
c2 8.66699 5.66699 19.667 11 33s12.833 30.333 22.5 51l26 55l33 66.5l32 63l35 67.5l30.5 58h70l22 -250l5 -72l2 -52l-1 -21c9.33301 32.667 74 164.334 194 395.001h73l-232 -445h-87l-18 197l-6 98l-1 68l2 31c-8.66699 -36.667 -72 -168 -190 -394h-79z" />
    <glyph glyph-name="Ycircumflex" unicode="&#x176;" horiz-adv-x="667" 
d="M331 727l162 173h76l73 -173h-61l-68 122l-120 -122h-62zM150 694l105.001 -0.000976562l108 -228c31.333 -67.333 48.666 -106.666 51.999 -117.999l53 62l254 284h88l-359 -399c-10.667 -11.333 -17 -22 -19 -32l-56 -263h-87l56 264
c1.33301 6.66699 2 10.334 2 11.001c0 3.33301 -2.33301 9.66602 -7 18.999z" />
    <glyph glyph-name="ycircumflex" unicode="&#x177;" horiz-adv-x="461" 
d="M187 510c96 86.667 144.999 131 146.999 133c6.66699 4.66699 13.667 7 21 7h48l95 -141h-61l-74 99l-64 -56c-24.667 -21.333 -39.667 -33.833 -45 -37.5s-11.666 -5.5 -18.999 -5.5h-9zM-0.000976562 -198l8.00098 65.998c32 -10.667 55 -16 69 -16
c19.333 0 35.666 7.33301 48.999 22s33 43.334 59 86.001l12 20c7.33301 10.667 11 18.334 11 23.001c0 3.33301 -1 8.33301 -3 15l-96 427h79c42 -188.667 63 -309.334 63 -362.001c0 -9.33301 -0.666992 -20.333 -2 -33c3.33301 11.333 8.33301 25.166 15 41.499
s16 35.5 28 57.5l32 59c9.33301 17.333 22.5 40.166 39.5 68.499l36.5 60.5l37.5 61c17.667 28.667 27.167 44.334 28.5 47.001h75l-336 -544c-20 -31.333 -39 -55.166 -57 -71.499s-32 -26.166 -42 -29.499s-21.667 -5 -35 -5c-25.333 0 -49 2.33301 -71 7z" />
    <glyph glyph-name="Ydieresis" unicode="&#x178;" horiz-adv-x="667" 
d="M352 760l19 89h89l-18 -89h-90zM546 760l19 89h89l-18 -89h-90zM150 694l105.001 -0.000976562l108 -228c31.333 -67.333 48.666 -106.666 51.999 -117.999l53 62l254 284h88l-359 -399c-10.667 -11.333 -17 -22 -19 -32l-56 -263h-87l56 264
c1.33301 6.66699 2 10.334 2 11.001c0 3.33301 -2.33301 9.66602 -7 18.999z" />
    <glyph glyph-name="Zacute" unicode="&#x179;" horiz-adv-x="611" 
d="M55 0c6 27.333 10.334 42.667 13.001 46c1.33301 2 5.66602 7.66699 12.999 17l494 569l-165 -1h-207l13 63h486l-5 -24l-5 -16l-8 -12l-500 -577h208l23 1h159l-14 -66h-505zM355.001 760.001l106 55c34 17.333 54.5 27.5 61.5 30.5s13.833 4.5 20.5 4.5h98l-175 -79
l-24 -10l-15 -1h-72z" />
    <glyph glyph-name="zacute" unicode="&#x17a;" horiz-adv-x="435" 
d="M243 510l160 130h46l33 -1l-177 -129h-62zM27 0c4.66699 23.333 8 36.667 10 40s12.333 14.333 31 33l314 313l-35 -1h-224l13 60h357l-8 -40l-345 -343h207l21 1h46l-13 -63h-374z" />
    <glyph glyph-name="Zdotaccent" unicode="&#x17b;" horiz-adv-x="611" 
d="M453 777l19 89h89l-18 -89h-90zM55 0c6 27.333 10.334 42.667 13.001 46c1.33301 2 5.66602 7.66699 12.999 17l494 569l-165 -1h-207l13 63h486l-5 -24l-5 -16l-8 -12l-500 -577h208l23 1h159l-14 -66h-505z" />
    <glyph glyph-name="zdotaccent" unicode="&#x17c;" horiz-adv-x="435" 
d="M316 590l19 89h89l-18 -89h-90zM27 0c4.66699 23.333 8 36.667 10 40s12.333 14.333 31 33l314 313l-35 -1h-224l13 60h357l-8 -40l-345 -343h207l21 1h46l-13 -63h-374z" />
    <glyph glyph-name="Zcaron" unicode="&#x17d;" horiz-adv-x="611" 
d="M336 889h62l73 -111l121 111h62l-158 -162h-71zM55 0c6 27.333 10.334 42.667 13.001 46c1.33301 2 5.66602 7.66699 12.999 17l494 569l-165 -1h-207l13 63h486l-5 -24l-5 -16l-8 -12l-500 -577h208l23 1h159l-14 -66h-505z" />
    <glyph glyph-name="zcaron" unicode="&#x17e;" horiz-adv-x="435" 
d="M195 639h60.999l86 -68l31 18l25 15l19 11.5c6 3.66699 10.833 6.5 14.5 8.5l11 6c3.66699 2 6.5 3.5 8.5 4.5s3.83301 1.83301 5.5 2.5s3.33398 1.16699 5.00098 1.5s3 0.5 4 0.5h4.5h10l38 -1c-94.667 -58.667 -144.667 -89 -150 -91c-3.33301 -1.33301 -8 -2 -14 -2
h-49zM26.999 0c4.66699 23.333 8 36.667 10 40s12.333 14.333 31 33l314 313l-35 -1h-224l13 60h357l-8 -40l-345 -343h207l21 1h46l-13 -63h-374z" />
    <glyph glyph-name="longs" unicode="&#x17f;" horiz-adv-x="305" 
d="M100 0l95.001 445c2 10.667 4.5 23 7.5 37l6.5 30l5 22.5c2 9 3.33301 15.167 4 18.5s1.83398 7.83301 3.50098 13.5l3.5 12c0.666992 2.33301 1.66699 5.33301 3 9s2.66602 6.83398 3.99902 9.50098l5 10c6 11.333 13.167 22.833 21.5 34.5s20.166 25.167 35.499 40.5
s34.333 27.666 57 36.999s47 14 73 14s51.333 -3.66699 76 -11l-15 -67c-28.667 11.333 -54.334 17 -77.001 17c-20 0 -38 -4.5 -54 -13.5s-27.333 -17.833 -34 -26.5s-12 -17 -16 -25c-3.33301 -8 -15.666 -62 -36.999 -162l-92 -445h-75z" />
    <glyph glyph-name="uni0180" unicode="&#x180;" horiz-adv-x="517" 
d="M81 0l108.999 511.001h-81l12 59h81l27 125h75l-27 -125h142l-12 -59h-142l-24 -114c54 38.667 112 58 174 58c40.667 0 70.834 -16.333 90.501 -49s29.5 -70.667 29.5 -114c0 -78.667 -24.833 -148.834 -74.5 -210.501s-106.167 -92.5 -169.5 -92.5
c-46 0 -86.667 19 -122 57l-10 -46h-78zM184.999 118.001c0 -12 6.83496 -26.166 20.502 -42.499s34.167 -24.5 61.5 -24.5c52 0 96.333 22.333 133 67s55 97.667 55 159c0 42 -10.833 72 -32.5 90s-45.834 27 -72.501 27c-20.667 0 -40.5 -4.66699 -59.5 -14
s-32.833 -18.166 -41.5 -26.499s-14.334 -14.5 -17.001 -18.5c-2.66699 -4.66699 -11.167 -41.334 -25.5 -110.001s-21.5 -104.334 -21.5 -107.001z" />
    <glyph glyph-name="uni0186" unicode="&#x186;" horiz-adv-x="639" 
d="M64 12l32 82.9971c16.667 -12 28.5 -20.167 35.5 -24.5s22.167 -10 45.5 -17s49 -10.5 77 -10.5c37.333 0 73.333 9 108 27s64.167 41.167 88.5 69.5s45 57.833 62 88.5s29.5 60.667 37.5 90c8.66699 32 14 70 16 114c-0.666992 38.667 -6.83398 72.834 -18.501 102.501
s-26.5 52.5 -44.5 68.5s-36.5 28 -55.5 36s-37.833 12 -56.5 12h-25c-40.667 -2.66699 -70.5 -7.16699 -89.5 -13.5s-50.5 -21.833 -94.5 -46.5l9 70c68.667 36.667 131.334 55 188.001 55h14c91.333 0 161.666 -34.333 210.999 -103
c34.667 -49.333 52 -108.666 52 -177.999c0 -76 -19.667 -149.667 -59 -221s-90.833 -128.666 -154.5 -171.999s-129.5 -65 -197.5 -65c-63.333 0 -123.666 11.667 -180.999 35z" />
    <glyph glyph-name="uni0188" unicode="&#x188;" 
d="M77 170c0 73.333 27.498 140.166 82.498 200.499s118.833 90.5 191.5 90.5c30.667 0 61.667 -4.33301 93 -13c1.33301 6.66699 3.5 16.834 6.5 30.501l6 27.5l4.5 21.5c2 9.66699 3.66699 16.334 5 20.001s3.16602 9 5.49902 16s4.66602 12.5 6.99902 16.5l8 14
c3 5.33301 6.5 10.666 10.5 15.999c34.667 45.333 75.334 68 122.001 68c37.333 0 65.333 -15.333 84 -46l-36 -62c-8 31.333 -27.667 47 -59 47c-18 0 -34.167 -6.83301 -48.5 -20.5s-24.833 -29.834 -31.5 -48.501c-1.33301 -3.33301 -3 -10.166 -5 -20.499
s-5.33301 -26 -10 -47l-14 -64.5l-25 -65c-30 21.333 -52.667 34.333 -68 39c-17.333 4.66699 -39 7 -65 7c-38 0 -71.667 -12.5 -101 -37.5s-50.666 -54 -63.999 -87s-20 -65.833 -20 -98.5c0 -35.333 9.33301 -64.333 28 -87s45.334 -34 80.001 -34
c24 0 47.667 3.33301 71 10s40.333 12.667 51 18s26.334 14 47.001 26l-8 -67c-60 -34 -118 -51 -174 -51c-54 0 -96.5 17.333 -127.5 52s-46.5 77.667 -46.5 129z" />
    <glyph glyph-name="uni018E" unicode="&#x18e;" horiz-adv-x="597" 
d="M35 0l17 72h45l22 -1h194l24 -1h85l61 258l-1 1h-330l15 61h330l55 237l-36 -1h-240l-25 -1h-57l15 66h448l-161 -691h-461z" />
    <glyph glyph-name="uni018F" unicode="&#x18f;" horiz-adv-x="669" 
d="M84 213c0 16.667 1.16602 35.001 3.49902 55.001s4.5 36 6.5 48l4 17h514c8 46 12 79.667 12 101c0 62 -15 113.833 -45 155.5s-73 62.5 -129 62.5c-14 0 -27.333 -0.333008 -40 -1s-23.667 -1.5 -33 -2.5s-19.333 -2.66699 -30 -5l-24.5 -5.5
c-5.66699 -1.33301 -14 -4.16602 -25 -8.49902s-18.5 -7.16602 -22.5 -8.49902s-12.333 -4.83301 -25 -10.5l-26 -11.5l3 83c55.333 15.333 96 24.833 122 28.5s62 5.5 108 5.5h5c70 0 126.333 -21.333 169 -64c52.667 -52.667 79 -124.667 79 -216
c0 -36.667 -5 -75.334 -15 -116.001s-26 -81.334 -48 -122.001s-48 -77.334 -78 -110.001s-67.167 -59.167 -111.5 -79.5s-92.166 -30.5 -143.499 -30.5c-28.667 0 -55.5 3.5 -80.5 10.5s-49.167 18.833 -72.5 35.5s-42 41.167 -56 73.5s-21 70.833 -21 115.5z
M161.999 226.001c0 -35.333 5.16699 -65.666 15.5 -90.999s24 -44.333 41 -57s34.5 -21.834 52.5 -27.501s37 -8.5 57 -8.5c55.333 0 107 19.833 155 59.5s85 96.167 111 169.5h-429c-2 -15.333 -3 -30.333 -3 -45z" />
    <glyph glyph-name="uni0190" unicode="&#x190;" horiz-adv-x="555" 
d="M75 134c0 27.333 3.83398 52.6689 11.501 76.002s17.667 42.666 30 57.999s26 29 41 41s30 21.333 45 28s28.667 12 41 16s22.5 6.66699 30.5 8l11 2c-72.667 16 -109 56.667 -109 122c0 28 7 58.667 21 92s33.333 60.666 58 81.999c44.667 38 111 57 199 57
c66 0 127.667 -11.333 185 -34l-33 -83c-25.333 18 -49.333 31.333 -72 40s-52.667 13 -90 13c-45.333 0 -83.333 -7.83301 -114 -23.5s-52.667 -44.5 -66 -86.5c-6 -24 -9 -42 -9 -54c0 -64 39.333 -96 118 -96h71l-13 -62h-67c-50.667 0 -91 -8.66699 -121 -26
c-26 -15.333 -46.667 -37.5 -62 -66.5s-23 -58.833 -23 -89.5c0 -70.667 45.333 -106 136 -106c44.667 0 81.167 4 109.5 12s67.166 24.333 116.499 49l-8 -70c-30.667 -14 -53.667 -24 -69 -30s-37.833 -11.667 -67.5 -17s-63.167 -8 -100.5 -8
c-133.333 0 -200 52 -200 156z" />
    <glyph glyph-name="florin" unicode="&#x192;" horiz-adv-x="620" 
d="M6 -171l34 61.002c20.667 -20.667 43.334 -31 68.001 -31c15.333 0 29 2.66699 41 8s21.167 11.833 27.5 19.5s11.333 15.5 15 23.5s5.83398 14.667 6.50098 20l2 8l96 448h-74l12 59h74c2 10.667 4.5 23 7.5 37l6.5 30l5 22.5c2 9 3.33301 15.167 4 18.5
s1.83398 7.83301 3.50098 13.5l3.5 12c0.666992 2.33301 1.66699 5.33301 3 9s2.66602 6.83398 3.99902 9.50098l5 10c5.33301 11.333 12.5 23 21.5 35s21 25.5 36 40.5s34 27.167 57 36.5s47.5 14 73.5 14s51.333 -3.66699 76 -11l-16 -67c-28.667 11.333 -54 17 -76 17
c-20 0 -38 -4.5 -54 -13.5s-27.333 -17.833 -34 -26.5s-12 -17 -16 -25c-3.33301 -8 -16 -62 -38 -162h114l-12 -59h-110l-88 -413c-8 -38.667 -16 -65.334 -24 -80.001c-6 -12.667 -13.833 -25.334 -23.5 -38.001s-25.334 -25.834 -47.001 -39.501
s-44.834 -20.5 -69.501 -20.5c-41.333 0 -79.333 11.333 -114 34z" />
    <glyph glyph-name="uni0195" unicode="&#x195;" horiz-adv-x="728" 
d="M80 0l146.997 694l1 1h75l-66 -311c52 47.333 105 71 159 71c74 0 111 -33 111 -99c0 -16.667 -4.16699 -45 -12.5 -85s-12.5 -73 -12.5 -99c0 -44 8.16699 -75.167 24.5 -93.5s35.166 -27.5 56.499 -27.5c18 0 34.167 6.66699 48.5 20s26.333 33.166 36 59.499
s17.334 50.333 23.001 72s12.167 49.167 19.5 82.5l3 15c7.33301 34.667 11 60.334 11 77.001c0 2 -1 13 -3 33c0.666992 11.333 5.83398 21.666 15.501 30.999s20.5 14 32.5 14c23.333 0 35 -20 35 -60c0 -24 -4.33301 -56.667 -13 -98s-21.667 -86 -39 -134
s-42.166 -89 -74.499 -123s-68.833 -51 -109.5 -51c-16 0 -31.833 2.66699 -47.5 8s-31.167 14 -46.5 26s-27.666 30.167 -36.999 54.5s-14 53.5 -14 87.5c0 28 3.5 59.667 10.5 95s10.5 58 10.5 68c0 44 -26.667 66 -80 66c-32 0 -58.833 -12.667 -80.5 -38
s-37.167 -53.666 -46.5 -84.999c-3.33301 -10.667 -23 -101 -59 -271h-78z" />
    <glyph glyph-name="uni0199" unicode="&#x199;" horiz-adv-x="489" 
d="M83 0l112.998 532.999c8.66699 40.667 27.834 75.5 57.501 104.5s61.834 49.5 96.501 61.5s69.667 18 105 18c32.667 0 58.834 -5.16699 78.501 -15.5s38.167 -25.166 55.5 -44.499v-1l-36 -61c-24.667 40 -62.334 60 -113.001 60c-35.333 0 -69 -9 -101 -27
s-53.333 -42 -64 -72l-9 -36l-60 -283l248 208h89l-205 -172l134 -273h-82l-109 224l-98 -82l-30 -142h-70z" />
    <glyph glyph-name="uni019A" unicode="&#x19a;" horiz-adv-x="389" 
d="M116 335l12 59h111l64 300v1h76l-64 -301h111l-13 -59h-111l-71 -335h-75l71 335h-111z" />
    <glyph glyph-name="uni019b" unicode="&#x19b;" horiz-adv-x="528" 
d="M48 22c1.33301 9.33301 9.66602 23.3389 24.999 42.0059l222 264l-15 50l-133 -63l-19 64l132 62c-6.66699 20.667 -14.667 47 -24 79c-16 54.667 -27.833 86.667 -35.5 96s-26.167 15.333 -55.5 18c-5.33301 0.666992 -9.33301 1 -12 1l-7 2l-5 5
c-3.33301 6 -5 11.333 -5 16c0 24.667 15 37 45 37c26.667 0 48.834 -2.16699 66.501 -6.5s30.667 -11 39 -20s13.666 -15.833 15.999 -20.5s4.83301 -11.334 7.5 -20.001l47 -150l132 62l20 -63l-133 -62l113 -360c9.33301 -28.667 19 -50.667 29 -66h-79
c-12 9.33301 -20 18.333 -24 27c-4.66699 10 -29.667 87 -75 231c-0.666992 3.33301 -1.66699 6.66602 -3 9.99902l-185 -232c0 -0.666992 -1.16699 -2.33398 -3.5 -5.00098s-4 -4.83398 -5 -6.50098s-2.83301 -3.83398 -5.5 -6.50098s-5.16699 -4.83398 -7.5 -6.50098
l-8 -5.5c-3 -2 -6.33301 -3.5 -10 -4.5s-7.16699 -1.5 -10.5 -1.5c-19.333 0 -30.666 11 -33.999 33z" />
    <glyph glyph-name="uni019E" unicode="&#x19e;" horiz-adv-x="489" 
d="M80 0l94.998 450h73l-14 -70c50 50 103.667 75 161 75c74.667 0 112 -33.333 112 -100c0 -18 -4 -44.333 -12 -79l-100 -471h-78l103 486c3.33301 20 5 32.333 5 37c0 44 -27 66 -81 66c-33.333 0 -60.666 -13.167 -81.999 -39.5s-36.666 -55.5 -45.999 -87.5
c-4 -12.667 -23.333 -101.667 -58 -267h-78z" />
    <glyph glyph-name="Ohorn" unicode="&#x1a0;" horiz-adv-x="736" 
d="M119 254c0 76 19 149.831 57 221.498s88.167 129.667 150.5 174s126.833 66.5 193.5 66.5c56 0 104.333 -16.667 145 -50h2l36 28h-25l18 84h83l-17 -83l-73 -50c12.667 -15.333 22.667 -28.166 30 -38.499s16.5 -31.666 27.5 -63.999s16.5 -67.5 16.5 -105.5
c0 -78 -19.333 -152.667 -58 -224s-89 -128.333 -151 -171s-125.667 -64 -191 -64c-72.667 0 -131.5 26 -176.5 78s-67.5 118 -67.5 198zM211 261.998c0 -66 15.167 -119.002 45.5 -159.002s70.5 -60 120.5 -60c51.333 0 100.5 20.833 147.5 62.5s84 93.334 111 155.001
s40.5 122.5 40.5 182.5c0 64 -16 114.833 -48 152.5s-72.667 56.5 -122 56.5c-74.667 0 -142.5 -38.667 -203.5 -116s-91.5 -168.666 -91.5 -273.999z" />
    <glyph glyph-name="ohorn" unicode="&#x1a1;" 
d="M71 169c0 74 28.5 141.168 85.5 201.501s120.5 90.5 190.5 90.5c45.333 0 85.333 -15.667 120 -47l39 30h-25l18 84h84l-17 -83l-80 -53c8.66699 -14.667 14.5 -25 17.5 -31s6.66699 -17.167 11 -33.5s6.5 -33.833 6.5 -52.5c0 -74.667 -28 -141 -84 -199
s-119.333 -87 -190 -87c-52 0 -94.333 17.167 -127 51.5s-49 77.166 -49 128.499zM151 176.001c0 -44 11.168 -75.5 33.501 -94.5s47.833 -28.5 76.5 -28.5c52 0 95.667 24 131 72s53 99.667 53 155c0 36.667 -10 65.667 -30 87s-47 32 -81 32
c-52.667 0 -96.334 -22.667 -131.001 -68s-52 -97 -52 -155z" />
    <glyph glyph-name="uni01A5" unicode="&#x1a5;" horiz-adv-x="489" 
d="M12 -195l153.998 724.004c2.66699 12 4.83398 20.667 6.50098 26s5.83398 15.166 12.501 29.499s16.334 28 29.001 41s28.334 25.833 47.001 38.5c54 35.333 115 53 183 53c27.333 0 52 -4 74 -12s37.167 -15.333 45.5 -22s17.833 -15.334 28.5 -26.001l-36 -62
c-11.333 13.333 -20.666 23.166 -27.999 29.499s-19.833 13 -37.5 20s-38.167 10.5 -61.5 10.5c-40.667 0 -78.334 -9.33301 -113.001 -28s-57.334 -42.667 -68.001 -72c-2.66699 -8 -14.334 -60.667 -35.001 -158c54 38.667 112 58 174 58
c40.667 0 70.834 -16.333 90.501 -49s29.5 -70.667 29.5 -114c0 -78.667 -24.833 -148.834 -74.5 -210.501s-105.834 -92.5 -168.501 -92.5c-46 0 -86.667 19 -122 57l-52 -241h-78zM157.998 118.004c0 -12 6.66895 -26.165 20.002 -42.498s33.666 -24.5 60.999 -24.5
c52 0 96.5 22.333 133.5 67s55.5 97.667 55.5 159c0 41.333 -11 71.166 -33 89.499s-46.333 27.5 -73 27.5c-20.667 0 -40.5 -4.66699 -59.5 -14s-32.833 -18.166 -41.5 -26.499s-14.334 -14.5 -17.001 -18.5c-2.66699 -4.66699 -11 -41.334 -25 -110.001
s-21 -104.334 -21 -107.001z" />
    <glyph glyph-name="uni01A7" unicode="&#x1a7;" horiz-adv-x="555" 
d="M87 143c0 54 19.1689 103.17 57.502 147.503s81.5 75.5 129.5 93.5c20 7.33301 46.167 14 78.5 20s60.333 13.5 84 22.5s46.167 24.167 67.5 45.5c23.333 23.333 35 50.333 35 81c0 28 -11.167 51 -33.5 69s-50.166 27 -83.499 27c-28.667 0 -55.167 -3.5 -79.5 -10.5
s-42.833 -13.833 -55.5 -20.5s-30.334 -17.667 -53.001 -33l5 83c38.667 18 71.5 30.667 98.5 38s58.833 11 95.5 11c60 0 105.833 -15.833 137.5 -47.5s47.5 -68.834 47.5 -111.501c0 -48.667 -18.5 -93.334 -55.5 -134.001s-79.167 -69.334 -126.5 -86.001
c-12 -4 -37.167 -10.5 -75.5 -19.5s-64.5 -15.833 -78.5 -20.5c-35.333 -13.333 -63.333 -33.666 -84 -60.999s-31 -56 -31 -86c0 -27.333 9.66699 -51.5 29 -72.5s48.666 -31.5 87.999 -31.5c81.333 0 159.666 27.667 234.999 83l-2 -35l-2 -48
c-84.667 -46 -165 -69 -241 -69c-63.333 0 -110.333 16.667 -141 50s-46 71.666 -46 114.999z" />
    <glyph glyph-name="uni01A8" unicode="&#x1a8;" horiz-adv-x="383" 
d="M45 90c0 44 13.667 79.8262 41 107.493s57.333 47.167 90 58.5c8 2.66699 28.333 7.33398 61 14.001s50.334 10.667 53.001 12c17.333 5.33301 32.5 14.333 45.5 27s19.5 27.334 19.5 44.001c0 32 -23.667 48 -71 48c-22.667 0 -44.334 -2.16699 -65.001 -6.5
s-35.167 -8.16602 -43.5 -11.499s-23.166 -9.66602 -44.499 -18.999l4 66c52.667 21.333 102.667 32 150 32c94 0 141 -34 141 -102c0 -36.667 -14.833 -70.5 -44.5 -101.5s-71.167 -51.167 -124.5 -60.5c-1.33301 0 -6.66602 -0.833008 -15.999 -2.5s-15.833 -3 -19.5 -4
s-10.334 -2.5 -20.001 -4.5s-16.834 -4.16699 -21.501 -6.5s-11 -5.16602 -19 -8.49902s-14 -7 -18 -11s-8.33301 -8.66699 -13 -14s-8 -11.5 -10 -18.5s-3 -14.5 -3 -22.5c0 -35.333 25.667 -53 77 -53c10 0 20.167 0.5 30.5 1.5s19.666 2.33301 27.999 4
s17 3.83398 26 6.50098s16.333 5 22 7s12.5 4.83301 20.5 8.5s13.5 6.33398 16.5 8.00098l14.5 8c6.66699 3.66699 10.334 5.5 11.001 5.5l-4 -68c-60.667 -30 -120.667 -45 -180 -45c-39.333 0 -71.5 8 -96.5 24s-37.5 41.667 -37.5 77z" />
    <glyph glyph-name="uni01AA" unicode="&#x1aa;" horiz-adv-x="358" 
d="M119 576c0 36 14.833 68.502 44.5 97.502s62.5 43.5 98.5 43.5c27.333 0 49.333 -10.5 66 -31.5s25 -47.833 25 -80.5c0 -12 -2.33301 -30.333 -7 -55l-128 -600c-4 -18.667 -6 -33 -6 -43c0 -20.667 4.66699 -36.167 14 -46.5s21 -15.5 35 -15.5
c29.333 0 56.333 18.333 81 55c4.66699 -28.667 7 -47.334 7 -56.001c0 -10.667 -10.5 -23.5 -31.5 -38.5s-45.5 -22.5 -73.5 -22.5c-32 0 -58 11 -78 33s-30 50 -30 84c0 8 3.33301 29.333 10 64l113 530c-14.667 -7.33301 -30 -11 -46 -11c-26.667 0 -49 8.66699 -67 26
s-27 39.666 -27 66.999zM186 588.002c0 -12 3.66699 -22.166 11 -30.499s17 -12.5 29 -12.5c13.333 0 25.333 6.66699 36 20s16 26.666 16 39.999c0 33.333 -10.333 50 -31 50c-14.667 0 -28.5 -7 -41.5 -21s-19.5 -29.333 -19.5 -46z" />
    <glyph glyph-name="uni01AB" unicode="&#x1ab;" horiz-adv-x="389" 
d="M85 -162l36 61.999c4.66699 -36.667 23 -55 55 -55c8.66699 0 16.667 1.5 24 4.5s13.5 6.33301 18.5 10s9.83301 9.66699 14.5 18s8.33398 15.166 11.001 20.499s5.5 13.666 8.5 24.999l6.5 25c1.33301 5.33301 3.33301 14.5 6 27.5s4.33398 21.5 5.00098 25.5
c-30.667 -8 -59.334 -12 -86.001 -12h-2c-41.333 0 -62 25.667 -62 77v9.5c0 2.33301 0.166992 5 0.5 8s0.833008 6.5 1.5 10.5s1.5 8.5 2.5 13.5l4 20.5c1.66699 8.66699 3.5 17.667 5.5 27l8 38l10.5 49.5l13.5 64l17 79.5h-83l12 59h87l26 126h70l-26 -126h141l-12 -59
h-142l-15.5 -73l-12.5 -59l-9.5 -45.5c-3 -14.333 -5.5 -25.833 -7.5 -34.5l-5.5 -24.5c-1.66699 -7.66699 -2.83398 -13.667 -3.50098 -18s-1.33398 -8.16602 -2.00098 -11.499s-1.16699 -6.16602 -1.5 -8.49902s-0.5 -4.16602 -0.5 -5.49902v-6
c0 -30.667 13.333 -46 40 -46c30.667 0 63 10.667 97 32c2 -28 3 -45 3 -51c0 -5.33301 -5.33301 -33.333 -16 -84c-23.333 -112 -76 -168 -158 -168c-23.333 0 -40.666 4.66699 -51.999 14s-20.333 23 -27 41z" />
    <glyph glyph-name="uni01AD" unicode="&#x1ad;" horiz-adv-x="389" 
d="M100 386l13.002 58.998h86c10.667 48 16.334 73 17.001 75c14 38.667 37.5 69.5 70.5 92.5s67.167 34.5 102.5 34.5c39.333 0 72.666 -13.667 99.999 -41v-1l-35 -61l-3 4c-2 2.66699 -3.33301 4.5 -4 5.5s-2.16699 2.83301 -4.5 5.5s-4.33301 4.5 -6 5.5
s-3.83398 2.66699 -6.50098 5s-5.16699 4.16602 -7.5 5.49902s-5.33301 2.83301 -9 4.5s-7.16699 2.83398 -10.5 3.50098s-7.33301 1.33398 -12 2.00098s-9.33398 1 -14.001 1c-20.667 0 -39.5 -7.16699 -56.5 -21.5s-29.167 -32.166 -36.5 -53.499
c-2.66699 -8 -7.66699 -30 -15 -66h141l-12 -59h-142c-38 -180.667 -57 -276 -57 -286c0 -30.667 13.333 -46 40 -46c30 0 62 10.667 96 32l4 -59c-51.333 -25.333 -104 -38 -158 -38c-40 0 -60 25.333 -60 76v9.5c0 2.33301 0.166992 5 0.5 8s0.833008 6.66699 1.5 11
s1.5 8.83301 2.5 13.5s2.33301 11.5 4 20.5s3.5 18.167 5.5 27.5l8 38l10.5 49l14 64.5l16.5 79.5h-84z" />
    <glyph glyph-name="Uhorn" unicode="&#x1af;" horiz-adv-x="687" 
d="M137 179c0 20.667 3.33398 45.667 10.001 75l94 440h89l-87 -411c-11.333 -52.667 -17 -89.667 -17 -111c0 -42 11.667 -75.5 35 -100.5s54 -37.5 92 -37.5c42 0 82 15 120 45s65.333 71 82 123c5.33301 18.667 10.333 39 15 61l91 431h78l-7 -33l48 33h-25l18 84h84
c-10 -46 -15.833 -71.5 -17.5 -76.5s-6.83398 -10.5 -15.501 -16.5l-33.5 -22l-38.5 -25c-11.333 -7.33301 -20.666 -13 -27.999 -17l-77 -362c-5.33301 -25.333 -9.66602 -44 -12.999 -56s-12.333 -31.667 -27 -59s-33.334 -52 -56.001 -74
c-61.333 -61.333 -131.333 -92 -210 -92c-58.667 0 -107.334 18.5 -146.001 55.5s-58 85.5 -58 145.5z" />
    <glyph glyph-name="uhorn" unicode="&#x1b0;" horiz-adv-x="517" 
d="M97 63c0 11.333 4.66895 39.0029 14.002 83.0029l63 299h78l-67 -319c-4.66699 -24.667 -7 -38.334 -7 -41.001c0 -16 6 -26.667 18 -32s29.333 -8 52 -8c35.333 0 64.5 8.66699 87.5 26s38.5 35.666 46.5 54.999c1.33301 3.33301 4.66602 16.333 9.99902 39l60 280h78
l-7 -35l48 34h-25l18 84h83c-11.333 -52.667 -18 -80.334 -20 -83.001c-1.33301 -2 -5.33301 -5.33301 -12 -10c-62.667 -40 -95.334 -61.667 -98.001 -65c-2.66699 -2.66699 -5 -8.66699 -7 -18l-74 -352h-76l10 48c-54.667 -39.333 -117.667 -59 -189 -59
c-56 0 -84 24.667 -84 74z" />
    <glyph glyph-name="uni01B7" unicode="&#x1b7;" horiz-adv-x="546" 
d="M73 128c0 5.33301 0.666016 14.6719 1.99902 28.0049l79 7c-0.666992 -4.66699 -1 -11.334 -1 -20.001c0 -33.333 11.5 -58.333 34.5 -75s52.5 -25.334 88.5 -26.001c36.667 1.33301 68.334 8.66602 95.001 21.999s46.5 29.666 59.5 48.999s22.167 37.5 27.5 54.5
s8 32.833 8 47.5c0 30.667 -9.16699 55.167 -27.5 73.5s-42.5 29.5 -72.5 33.5l-29 3l2 5h-96l13 61l290 223v1h-143l-231 -2l17 81h469l-17 -81l-290 -222l-1 -6c36.667 -0.666992 69 -6.5 97 -17.5s49.5 -25 64.5 -42s26 -34.667 33 -53s10.5 -36.5 10.5 -54.5
c0 -60.667 -29.167 -115.834 -87.5 -165.501s-126.5 -74.5 -204.5 -74.5c-18 0 -35.5 1.33301 -52.5 4s-34 7.5 -51 14.5s-31.667 16 -44 27s-22.5 25.333 -30.5 43s-12 38.167 -12 61.5z" />
    <glyph glyph-name="uni01B9" unicode="&#x1b9;" horiz-adv-x="435" 
d="M35 -51c0 55.333 18.667 110.332 56 164.999s80.333 82.667 129 84l-86 192l-4 12c1.33301 10 4 24.333 8 43h357l-13 -65h-261l111 -247h-73c-28 0 -52.167 -7 -72.5 -21s-35.5 -31.5 -45.5 -52.5s-17.167 -40.667 -21.5 -59s-6.5 -35.166 -6.5 -50.499
c0 -28.667 7.83301 -51.5 23.5 -68.5s37.167 -25.5 64.5 -25.5c60 0 118.667 28.667 176 86l-2 -67c-60 -53.333 -122.667 -80 -188 -80c-46 0 -82.833 14.667 -110.5 44s-41.5 66 -41.5 110z" />
    <glyph glyph-name="uni01BA" unicode="&#x1ba;" horiz-adv-x="435" 
d="M92 -106c0 26.667 11.499 50.665 34.499 71.998s48.667 38 77 50s57.5 27.333 87.5 46s50 38 60 58c3.33301 6.66699 5 13.334 5 20.001c0 14.667 -13.667 24.667 -41 30s-73.333 8 -138 8l200 202h-255l14 65h357l-5 -25l-5 -17l-10 -12l-157 -159
c32 -6.66699 58.667 -18 80 -34s32 -37.667 32 -65c0 -26.667 -11.667 -50.667 -35 -72s-49.666 -38.166 -78.999 -50.499s-58.833 -28 -88.5 -47s-49.167 -38.833 -58.5 -59.5c-3.33301 -6.66699 -5 -13 -5 -19c0 -4 1.66699 -9.33301 5 -16
c14.667 -8.66699 33.667 -13 57 -13c44 0 87.333 17 130 51l43 -55c-58.667 -38 -119 -57 -181 -57c-36.667 0 -66.5 9 -89.5 27s-34.5 42 -34.5 72z" />
    <glyph glyph-name="uni01BF" unicode="&#x1bf;" horiz-adv-x="461" 
d="M39 -205l137.001 650h75l-6 -31c50.667 17.333 81.334 27.5 92.001 30.5s22 4.5 34 4.5c34 0 61.667 -13 83 -39s32 -58.667 32 -98c0 -50 -15.667 -100 -47 -150c-10 -16 -20 -30.333 -30 -43s-22 -24 -36 -34l-32.5 -23.5c-7.66699 -5.66699 -21.334 -12 -41.001 -19
l-39.5 -14c-6.66699 -2.33301 -23.334 -7 -50.001 -14l-51 -13.5l-40 -186zM172.001 62c82.667 22.667 127.669 36 135.002 40c23.333 11.333 43.166 31.833 59.499 61.5s27.166 56.167 32.499 79.5s8 42.333 8 57c0 24.667 -6 45.167 -18 61.5s-27.667 24.5 -47 24.5
c-8 0 -44 -10.667 -108 -32z" />
    <glyph glyph-name="uni01C0" unicode="&#x1c0;" horiz-adv-x="278" 
d="M58 -195l189 889v1h78l-189 -890h-78z" />
    <glyph glyph-name="uni01C1" unicode="&#x1c1;" horiz-adv-x="444" 
d="M55 -195l189 889v1h73l-189 -890h-73zM233 -195l188 889l1 1h73l-190 -890h-72z" />
    <glyph glyph-name="uni01C2" unicode="&#x1c2;" horiz-adv-x="556" 
d="M82 129l14 64h183v1l17 81h-183l14 64h183l76 356h78l-76 -356h183l-14 -64h-183l-17 -82h183l-14 -64h-183l-68 -324h-78l68 324h-183z" />
    <glyph glyph-name="uni01C3" unicode="&#x1c3;" horiz-adv-x="319" 
d="M117 0l18 84h83l-17 -84h-84zM162 175l102 519l1 1h83l-119 -520h-67z" />
    <glyph glyph-name="uni01C4" unicode="&#x1c4;" horiz-adv-x="1333" 
d="M1058 889h62l73 -111l121 111h62l-158 -162h-71zM777 0c6 27.333 10.334 42.667 13.001 46c1.33301 2 5.66602 7.66699 12.999 17l494 569l-165 -1h-207l13 63h486l-5 -24l-5 -16l-8 -12l-500 -577h208l23 1h159l-14 -66h-505zM95.001 0.000976562l147 693.999h251
c39.333 0 74.333 -6 105 -18s55.167 -27.167 73.5 -45.5s33.5 -39.833 45.5 -64.5s20.167 -48.5 24.5 -71.5s6.5 -46.167 6.5 -69.5c0 -103.333 -35.5 -196.666 -106.5 -279.999s-152.5 -131 -244.5 -143c-12 -1.33301 -30.333 -2 -55 -2h-247zM194.001 56l153 0.000976562
c85.333 0 159 36.667 221 110s93 160.666 93 261.999c0 24.667 -3 48.167 -9 70.5s-16 44.5 -30 66.5s-34.5 39.667 -61.5 53s-59.5 20 -97.5 20h-145z" />
    <glyph glyph-name="uni01C5" unicode="&#x1c5;" horiz-adv-x="1157" 
d="M917 639h60.999l86 -68l31 18l25 15l19 11.5c6 3.66699 10.833 6.5 14.5 8.5l11 6c3.66699 2 6.5 3.5 8.5 4.5s3.83301 1.83301 5.5 2.5s3.33398 1.16699 5.00098 1.5s3 0.5 4 0.5h4.5h10l38 -1c-94.667 -58.667 -144.667 -89 -150 -91c-3.33301 -1.33301 -8 -2 -14 -2
h-49zM748.999 0c4.66699 23.333 8 36.667 10 40s12.333 14.333 31 33l314 313l-35 -1h-224l13 60h357l-8 -40l-345 -343h207l21 1h46l-13 -63h-374zM94.999 0.000976562l147 693.999h251c39.333 0 74.333 -6 105 -18s55.167 -27.167 73.5 -45.5s33.5 -39.833 45.5 -64.5
s20.167 -48.5 24.5 -71.5s6.5 -46.167 6.5 -69.5c0 -103.333 -35.5 -196.666 -106.5 -279.999s-152.5 -131 -244.5 -143c-12 -1.33301 -30.333 -2 -55 -2h-247zM193.999 56l153 0.000976562c85.333 0 159 36.667 221 110s93 160.666 93 261.999c0 24.667 -3 48.167 -9 70.5
s-16 44.5 -30 66.5s-34.5 39.667 -61.5 53s-59.5 20 -97.5 20h-145z" />
    <glyph glyph-name="uni01C6" unicode="&#x1c6;" horiz-adv-x="952" 
d="M712 639h60.999l86 -68l31 18l25 15l19 11.5c6 3.66699 10.833 6.5 14.5 8.5l11 6c3.66699 2 6.5 3.5 8.5 4.5s3.83301 1.83301 5.5 2.5s3.33398 1.16699 5.00098 1.5s3 0.5 4 0.5h4.5h10l38 -1c-94.667 -58.667 -144.667 -89 -150 -91c-3.33301 -1.33301 -8 -2 -14 -2
h-49zM543.999 0c4.66699 23.333 8 36.667 10 40s12.333 14.333 31 33l314 313l-35 -1h-224l13 60h357l-8 -40l-345 -343h207l21 1h46l-13 -63h-374zM74.999 155.001c0 76.667 24.001 145.833 72.001 207.5s101.667 92.5 161 92.5c51.333 0 96.666 -18 135.999 -54l68 321h75
l-153 -722h-79l11 52c-54 -42 -108 -63 -162 -63c-42 0 -74 16.833 -96 50.5s-33 72.167 -33 115.5zM154 167c0 -41.333 10.835 -71 32.502 -89s46.167 -27 73.5 -27c37.333 0 69.666 14.333 96.999 43c12 12 19.167 20 21.5 24s4.5 11.333 6.5 22c27.333 128 41 194 41 198
c0 4.66699 -2.5 11 -7.5 19s-14.333 16.167 -28 24.5s-29.834 12.5 -48.501 12.5c-50 0 -93.833 -21.833 -131.5 -65.5s-56.5 -97.5 -56.5 -161.5z" />
    <glyph glyph-name="uni01C7" unicode="&#x1c7;" horiz-adv-x="1014" 
d="M587 20l30 75c30.667 -36.667 69.334 -55 116.001 -55c8.66699 0 17.667 0.833008 27 2.5s20.666 4.66699 33.999 9s26 11.833 38 22.5s22 23.667 30 39c5.33301 11.333 12.333 36.333 21 75l107 506h87l-109 -514c-4.66699 -24 -8.5 -41.333 -11.5 -52
s-9.33301 -25.667 -19 -45s-22.167 -36 -37.5 -50c-39.333 -36.667 -89.333 -55 -150 -55c-58 0 -112.333 14 -163 42zM94 0l147 694h90l-134 -629h196l25 1h95l-14 -66h-405z" />
    <glyph glyph-name="uni01C8" unicode="&#x1c8;" horiz-adv-x="809" 
d="M445 -171l28.001 60.999c20.667 -20.667 44.334 -31 71.001 -31c16 0 30.167 2.66699 42.5 8s21.666 11.833 27.999 19.5s11.5 15.334 15.5 23.001s6.66699 14.167 8 19.5l1 8l108 508h75l-100 -472c-8.66699 -40 -16.334 -66.667 -23.001 -80
c-12.667 -25.333 -31.167 -48 -55.5 -68s-52.833 -30 -85.5 -30c-39.333 0 -77 11.333 -113 34zM764.001 589.999l19 89h89l-18 -89h-90zM94.001 -0.000976562l147 694h90l-134 -629h196l25 1h95l-14 -66h-405z" />
    </font>
</defs>
</svg>
